Ссылка на приватное зеркало нашего сайта всего за 1$. Внимание количество ограничено!!!

2 сезон

iTunes

1 сезон

1

iTunes

iTunes

iTunes

1 сезон

RePack

30

ИГРА 18+

pack

ВАЖНО

!!Акция!!

Alien_RageХит недели

RePack

MK11
pack

Забери бонус

RePack

jed

!!Акция!!

Alien_Rage

RePack

fifa19

RePack

Assassins Creed: Odyssey

RePack

NEED FOR SPEED™ PAYBACK

4 сезон

9 сезон

Бесстыжие 9 сезон

Все сериалы

все сериалы на PB.wtf

RePack

FAR CRY 5
  

Девять жизней / Сезон: 1 / Серии: 1-8 из 8 (Давид Ткебучава) [2019, Мелодрама, WEB-DLRip] pb.wtf

Девять жизней через торрент pb.wtf

Размер: 5.19 GB | Добавлен: 1 год 6 мес. назад | Торрент скачан:51 раз
Скачать  

22-04-2019 20:06 Девять жизней Скачать торрент  

Девять жизней Год выпуска: 2019
Страна: Россия
Жанр: Мелодрама
Продолжительность: ~ 00:52:00
Субтитры: отсутствуют

Режиссер: Давид Ткебучава



В ролях:

Зоя Бербер, Александр Самойленко, Инга Оболдина, Сергей Чирков, Юлия Галкина, Евгения Добровольская, Валентин Смирнитский, Юрий Назаров, Валерий Афанасьев, Савелий Кудряшов, Александр Макогон, Александр Андриенко, Борис Шевченко, Сергей Борисов (III)

Описание:

Маша Трофимова мечтала о спокойной счастливой жизни: поступить в институт и выйти замуж за любимого Сергея. Но чтобы спасти отца от тюрьмы, Маше пришлось связать свою жизнь с чудовищем. В обмен на свободу отца, мать Маши устраивает дочери свадьбу с Игнатом, суровым хромым мужчиной гораздо старше Маши. Через несколько лет Сергей возвращается, чтобы отомстить бывшей невесте. В одночасье Маша лишается всего — мужа, сына, дома, надежды. Ее разыскивает и полиция, и бандиты. Она оставляет маленького сына родителям и пускается в бега. На что способна женщина, загнанная в угол?

Качество: WEB-DLRip
Формат: AVI

Видео: XviD, ~ 1600 Кбит/с, 720x400
Аудио: AC3, 2 ch, 192 Кбит/с
скриншот  скриншот  скриншот  скриншот  скриншот  

Общее
Полное имя : D:\Девять жизней. 2019.WEB-DLRip. Files-x\01. Девять жизней. 2019.WEB-DLRip. Files-x.avi
Формат : AVI
Формат/Информация : Audio Video Interleave
Размер файла : 679 Мбайт
Продолжительность : 52 м. 40 с.
Общий поток : 1802 Кбит/сек
Программа кодирования : VirtualDubMod 1.5.10.3 | www.virtualdub-fr.org || (build 2550/release)
Библиотека кодирования : VirtualDubMod build 2550/release

Видео
Идентификатор : 0
Формат : MPEG-4 Visual
Профиль формата : Advanced Simple@L5
Параметр BVOP формата : 1
Параметр QPel формата : Нет
Параметр GMC формата : Без точки перехода
Параметр матрицы формата : Выборочная
Идентификатор кодека : XVID
Идентификатор кодека/Подсказка : XviD
Продолжительность : 52 м. 40 с.
Битрейт : 1600 Кбит/сек
Ширина : 720 пикселей
Высота : 400 пикселей
Соотношение сторон : 16:9
Частота кадров : 25,000 кадров/сек
Цветовое пространство : YUV
Субдискретизация насыщенности : 4:2:0
Битовая глубина : 8 бит
Тип развёртки : Прогрессивная
Метод сжатия : С потерями
Бит/(Пиксели*Кадры) : 0.222
Размер потока : 603 Мбайт (89%)
Библиотека кодирования : XviD 73

Аудио
Идентификатор : 1
Формат : AC-3
Формат/Информация : Audio Coding 3
Расширение режима : CM (complete main)
Параметр Endianness формата : Big
Идентификатор кодека : 2000
Продолжительность : 52 м. 40 с.
Вид битрейта : Постоянный
Битрейт : 192 Кбит/сек
Каналы : 2 канала
Расположение каналов : Front: L R
Частота : 48,0 КГц
Частота кадров : 31,250 кадров/сек (1536 spf)
Метод сжатия : С потерями
Размер потока : 72,3 Мбайт (11%)
Выравнивание : Разделение по промежуткам
Продолжительность промежутка : 40 мс. (1,00 видеокадр)
Время предзагрузки промежутка : 500 мс.

Внимание! Раздача ведётся путём добавления новых серий; при каждом добавлении создаётся новый торрент.
Чтобы начать докачку новой серии, пользователям необходимо сделать следующее:
1. Остановить скачивание;
2. Удалить старый торрент у себя из клиента (старые серии удалять не надо);
3. Скачать новый торрент и запустить его у себя в клиенте вместо старого, при этом указать клиенту путь в старую папку куда и должно происходить скачивание новых серий. Ваш клиент при этом должен произвести хеширование (проверку) старой папки и будет докачивать только те серии, которых у вас ещё нет. Старые серии при этом не удаляются, а продолжают раздаваться! Eсли вы уже удалили старые серии, то предотвратить повторную закачку старых серий можно, отжав галочку в соответствующих местах при запуске нового торрента.
pb.wtf



Скачать Девять жизней через торрент http://img16.lostpic.net/2019/04/22/b2c38a3a8407d09f4033407e08829ca4.jpg Скачать фильм Девять жизней через торрент бесплантно в хорошем качестве Описание: Маша Трофимова мечтала о спокойной счастливой жизни: поступить в институт и выйти замуж за любимого Сергея. Но чтобы спасти отца ... 10 10 6
Торрент: Зарегистрирован [2019-04-26 11:35] · скачан: 51 раз
Статус: √ проверено
Размер: 5.19 GB
Как cкачать? Как скачать Девять жизней через торрент | qTorrent

% Раздел Тема Автор DL S | L
Наши сериалы [ 20.81 GB ] Девять жизней / Сезон: 1 / Серии: 1-8 из 8 [2019 Мело HDTV 1080p] bober100 Скачать
1 | 0
Наши сериалы [ 4.35 GB ] Девять жизней / Сезон: 1 / Серии: 1-8 из 8 [2019 Мело HDTVRip] bober100 Скачать
1 | 0
Наши сериалы [ 12 GB ] Девять жизней / Сезон: 1 / Серии: 1-8 из 8 [2019 Мело HDTVRip 720p] bober100 Скачать
1 | 0
Наши сериалы [ 5.16 GB ] Девять жизней / Сезон: 1 / Серии: 1-8 из 8 [2019 Мело WEBRip-AVC] bober100 Скачать
1 | 0
Наши сериалы [ 4.69 GB ] Девять жизней / Сезон: 1 / Серии: 1-8 из 8 [2019 Мело SATRip] bober100 Скачать
1 | 0

28-11-2019 20:33  

Отключить всю рекламу на сайте

    Дорогой пользователь! Огромная просьба, поблагодарите релизера, оцените раздачу и оставьте свои комментарий, если Вы скачали Девять жизней через торрент бесплатно! Внесите свою лепту в развитие PiratBit!
    Комментировать посты могут только пользователи прошедшие не сложную регистрацию
    Показать сообщения:    

    Девять жизней через торрент
    Скачать бесплатно Девять жизней
    Девять жизней скачать торрент
    Девять жизней смотреть онлайн
    Cкачать фильм Девять жизней бесплатно
    Девять жизней скачать торрент в хорошем качестве
    Девять жизней смотреть онлайн бесплатно в хорошем качестве


    Вы не можете начинать темы
    Вы не можете отвечать на сообщения
    Вы не можете редактировать свои сообщения
    Вы не можете удалять свои сообщения
    Вы не можете голосовать в опросах
    Вы не можете прикреплять файлы к сообщениям
    Вы можете скачивать файлы