Ссылка на приватное зеркало нашего сайта всего за 1$. Внимание количество ограничено!!!

2 сезон

iTunes

1 сезон

1

iTunes

iTunes

iTunes

1 сезон

RePack

30

ИГРА 18+

pack

ВАЖНО

!!Акция!!

Alien_RageХит недели

RePack

MK11
pack

Забери бонус

RePack

jed

!!Акция!!

Alien_Rage

RePack

fifa19

RePack

Assassins Creed: Odyssey

RePack

NEED FOR SPEED™ PAYBACK

4 сезон

9 сезон

Бесстыжие 9 сезон

Все сериалы

все сериалы на PB.wtf

RePack

FAR CRY 5
  

Подсудимый / Сезон: 1 / Серии: 1-16 из 16 (Максим Бриус) [2019, Детектив, драма, WEBRip-AVC] pb.wtf

Подсудимый через торрент pb.wtf

Размер: 11.91 GB | Добавлен: 1 год 5 мес. назад | Торрент скачан:96 раз
Скачать  

22-04-2019 23:41 Подсудимый Скачать торрент  

Подсудимый Год выпуска: 2019
Страна: Россия
Жанр: Детектив, драма
Продолжительность: ~ 00:48:00
Субтитры: отсутствуют

Режиссер: Максим Бриус



В ролях:

Дмитрий Паламарчук, Пётр Рыков, Елена Вожакина, Андрей Терентьев, Владимир Литвинов, Антон Гуляев, Мария Русских, Андрей Марусин, Александр Рыбаков, Игорь Денисов, Владимир Чернышов, Вадим Бурлаков, Пётр Терещенко, Андрей Аладьин, Виталий Бисеров, Руслан Китайгородский

Описание:

Жесткий и неподкупный следователь СК Андрей Климов отказывается от выгодных предложений в частных компаниях или продвижения по карьерной лестнице. Его главная цель в работе — разоблачение преступников вне зависимости от их финансового положения и статуса в обществе. У Климова дружная, образцовая семья — любимая жена и красавица-дочка. Он уверен в себе и близких и не предполагает, что скоро его мир рухнет в одночасье. Однажды, уснув у себя дома, Климов просыпается в тюремной камере. Через несколько часов следователь узнает, что его обвиняют в убийстве жены и дочери. Еще один удар Климову наносит его собственная память: потрясенный мужчина не может вспомнить ничего за последние четыре месяца. Единственное, что он точно знает — это детали одного из своих расследований. В свое время ему поручили дело о гибели президента солидной компании, в убийстве которого Климов подозревал его брата-близнеца. Связаны ли между собой обстоятельства расследуемого дела и смерть его близких? Кто на самом деле убил его жену? Почему он взял вину на себя?

Качество: WEBRip-AVC
Формат: MKV

Видео: 1024x576, (16:9), 25 fps, AVC MPEG-4 (x264), High@L4.1 ~ 2000 kbps , 0.136 bit/pixel
Аудио: 48 kHz, АС3, 2/0 (L,R), ~192.00 kbps avg
скриншот  скриншот  скриншот  скриншот  

Общее
Уникальный идентификатор : 238774309598047431576377905107521349377 (0xB3A24260356726538D72B5CD9BFDA701)
Полное имя : C:\Подсудимый.(2019).WEBRip.(AVC).Files-x\01.Podsudimyy.(2019).WEBRip.(AVC).by.Серый1779.Files-x.mkv
Формат : Matroska
Версия формата : Version 2
Размер файла : 768 Мбайт
Продолжительность : 49 м. 0 с.
Общий поток : 2191 Кбит/сек
Дата кодирования : UTC 2019-04-22 21:48:04
Программа кодирования : mkvmerge v7.8.0 (''River Man'') 32bit built on Apr 3 2015 12:11:22
Библиотека кодирования : libebml v1.3.1 + libmatroska v1.4.2

Видео
Идентификатор : 1
Формат : AVC
Формат/Информация : Advanced Video Codec
Профиль формата : High@L4.1
Настройки формата : CABAC / 9 Ref Frames
Параметр CABAC формата : Да
Параметр RefFrames формата : 9 кадров
Идентификатор кодека : V_MPEG4/ISO/AVC
Продолжительность : 49 м. 0 с.
Битрейт : 2000 Кбит/сек
Ширина : 1024 пикселя
Высота : 576 пикселей
Соотношение сторон : 16:9
Режим частоты кадров : Постоянный
Частота кадров : 25,000 кадров/сек
Цветовое пространство : YUV
Субдискретизация насыщенности : 4:2:0
Битовая глубина : 8 бит
Тип развёртки : Прогрессивная
Бит/(Пиксели*Кадры) : 0.136
Размер потока : 686 Мбайт (89%)
Библиотека кодирования : x264 core 146 r2538 121396c
Настройки программы : cabac=1 / ref=9 / deblock=1:-2:-1 / analyse=0x3:0x133 / me=umh / subme=9 / psy=1 / psy_rd=1.00:0.15 / mixed_ref=1 / me_range=32 / chroma_me=1 / trellis=2 / 8x8dct=1 / cqm=0 / deadzone=21,11 / fast_pskip=0 / chroma_qp_offset=-3 / threads=18 / lookahead_threads=3 / sliced_threads=0 / nr=0 / decimate=1 / interlaced=0 / bluray_compat=0 / constrained_intra=0 / bframes=9 / b_pyramid=2 / b_adapt=2 / b_bias=0 / direct=1 / weightb=1 / open_gop=0 / weightp=2 / keyint=250 / keyint_min=25 / scenecut=40 / intra_refresh=0 / rc=2pass / mbtree=0 / bitrate=2000 / ratetol=1.0 / qcomp=0.60 / qpmin=0 / qpmax=69 / qpstep=4 / cplxblur=20.0 / qblur=0.5 / ip_ratio=1.40 / pb_ratio=1.30 / aq=2:1.00
Default : Да
Forced : Нет
Цветовой диапазон : Limited
Основные цвета : BT.709
Характеристики трансфера : BT.709
Коэффициенты матрицы : BT.709

Аудио
Идентификатор : 2
Формат : AC-3
Формат/Информация : Audio Coding 3
Коммерческое название : Dolby Digital
Идентификатор кодека : A_AC3
Продолжительность : 49 м. 0 с.
Вид битрейта : Постоянный
Битрейт : 192 Кбит/сек
Каналы : 2 канала
Channel layout : L R
Частота : 48,0 КГц
Частота кадров : 31,250 кадров/сек (1536 SPF)
Битовая глубина : 16 бит
Метод сжатия : С потерями
Размер потока : 67,3 Мбайт (9%)
ServiceKind/String : Complete Main
Default : Да
Forced : Нет

Внимание! Раздача ведётся путём добавления новых серий; при каждом добавлении создаётся новый торрент.
Чтобы начать докачку новой серии, пользователям необходимо сделать следующее:
1. Остановить скачивание;
2. Удалить старый торрент у себя из клиента (старые серии удалять не надо);
3. Скачать новый торрент и запустить его у себя в клиенте вместо старого, при этом указать клиенту путь в старую папку куда и должно происходить скачивание новых серий. Ваш клиент при этом должен произвести хеширование (проверку) старой папки и будет докачивать только те серии, которых у вас ещё нет. Старые серии при этом не удаляются, а продолжают раздаваться! Eсли вы уже удалили старые серии, то предотвратить повторную закачку старых серий можно, отжав галочку в соответствующих местах при запуске нового торрента.
pb.wtf



Скачать Подсудимый через торрент http://img16.lostpic.net/2019/04/22/0f328195864150e2c341ab24feb95e2a.jpg Скачать фильм Подсудимый через торрент бесплантно в хорошем качестве Описание: Жесткий и неподкупный следователь СК Андрей Климов отказывается от выгодных предложений в частных компаниях или продвижения по ... 10 10 8
Info! Золотая раздача, скачанное не засчитывается.
Торрент: Зарегистрирован [2019-05-01 07:30] · скачан: 96 раз
Статус: √ проверено
Размер: 11.91 GB
Как cкачать? Как скачать Подсудимый через торрент | qTorrent

% Раздел Тема Автор DL S | L
Наши сериалы [ 38.92 GB ] Подсудимый / Сезон: 1 / Серии: 1-16 из 16 [2019 HDTV 1080p] bober100 Скачать
1 | 0
Наши сериалы [ 20.06 GB ] Подсудимый / Сезон: 1 / Серии: 1-16 из 16 [2019 WEBRip 720p] bober100 Скачать
1 | 0
Наши сериалы [ 9.01 GB ] Подсудимый / Сезон: 1 / Серии: 1-16 из 16 [2019 WEBRip] bober100 Скачать
2 | 0
Наши сериалы [ 33.52 GB ] Подсудимый / Сезон: 1 / Серии: 1-16 из 16 [2019 WEB-DL 1080p] bober100 Скачать
1 | 0
Наши сериалы [ 9.37 GB ] Подсудимый / Сезон: 1 / Серии: 1-16 из 16 [2019 SATRip] bober100 Скачать
1 | 0


Последний раз редактировалось: bober100 (2019-04-28 04:17), всего редактировалось 1 раз

28-11-2019 20:33  

Отключить всю рекламу на сайте

    Дорогой пользователь! Огромная просьба, поблагодарите релизера, оцените раздачу и оставьте свои комментарий, если Вы скачали Подсудимый через торрент бесплатно! Внесите свою лепту в развитие PiratBit!
    Комментировать посты могут только пользователи прошедшие не сложную регистрацию
    Показать сообщения:    

    Подсудимый через торрент
    Скачать бесплатно Подсудимый
    Подсудимый скачать торрент
    Подсудимый смотреть онлайн
    Cкачать фильм Подсудимый бесплатно
    Подсудимый скачать торрент в хорошем качестве
    Подсудимый смотреть онлайн бесплатно в хорошем качестве


    Вы не можете начинать темы
    Вы не можете отвечать на сообщения
    Вы не можете редактировать свои сообщения
    Вы не можете удалять свои сообщения
    Вы не можете голосовать в опросах
    Вы не можете прикреплять файлы к сообщениям
    Вы можете скачивать файлы