Ссылка на приватное зеркало нашего сайта всего за 1$. Внимание количество ограничено!!!

2 сезон

iTunes

1 сезон

1

iTunes

iTunes

iTunes

1 сезон

RePack

30

ИГРА 18+

pack

ВАЖНО

!!Акция!!

Alien_RageХит недели

RePack

MK11
pack

Забери бонус

RePack

jed

!!Акция!!

Alien_Rage

RePack

fifa19

RePack

Assassins Creed: Odyssey

RePack

NEED FOR SPEED™ PAYBACK

4 сезон

9 сезон

Бесстыжие 9 сезон

Все сериалы

все сериалы на PB.wtf

RePack

FAR CRY 5
  

Крот / Сезон: 1 / Серии: 1-12 из 12 (Эрнест Ясан) [2001, драма, криминал, SATRip] pb.wtf

Крот через торрент pb.wtf

Размер: 8.21 GB | Добавлен: 1 год 5 мес. назад | Торрент скачан:54 раза
Скачать  

23-04-2019 07:51 Крот Скачать торрент  

Крот Год выпуска: 2001
Страна: Россия
Жанр: драма, криминал
Продолжительность: ~ 00:49:00 серия
Субтитры: отсутствуют

Режиссер: Эрнест Ясан

rating

В ролях:

Павел Новиков, Николай Волков (младший), Дмитрий Нагиев, Виктор Смирнов, Борис Соколов, Сергей Щербин, Виктор Мережко, Виктор Костецкий, Константин Спасский, Алексей Осьминин, Мария Кивва, Анна Калугина, Елена Попова, Ирина Горячева, Александр Строев (III), Алексей Зубарев, Михаил Трясоруков, Денис Кириллов, Леонид Максимов, Анна Герм, Евгений Александров, Сергей Мурзин, Александр Тютрюмов, Андрей Шарков, Александр Завьялов, Дмитрий Конокотов, Анна Королёва, Николай Устинов, Александр Богурдович, Сергей Гейбах, Владислав Берлев, Иван Лунев, Юрий Сергеев (III), Эрнст Романов, Денис Агатов, Сурен Вартанов, Борис Бирман, Александра Сыдорук, Саша Сотников, Валерий Ярёменко

Описание:

"Крот" на языке спецслужб - человек, внедрённый в криминальные сферы. Ради работы в спецслужбах агент должен забыть всё, начиная от любимой жены и заканчивая родным городом...
Оперативного работника уголовного розыска Сергея Кузьмичева посылают в Москву с целью внедрения в одну из преступных группировок. Его первое задание представляется не очень сложным. Молодой парень из провинции, якобы приехавший на заработки, успешно с ним справляется. Однако, по воле случая, он оказывается в самом пекле бандитских разборок, и, как настоящий оперативник, с риском для жизни, решает продолжить "игру".

Качество: SATRip
Формат: AVI

Видео: 688x512 (1.34:1), 25 fps, XviD build 73 ~1868 kbps avg, 0.21 bit/pixel
Аудио: 48 kHz, AC3 Dolby Digital, 2/0 (L,R) ch, ~192 kbps
скриншот  скриншот  скриншот  скриншот  скриншот  

Общее
Полное имя : D:\Крот\Крот (01 сер.).avi
Формат : AVI
Формат/Информация : Audio Video Interleave
Размер файла : 701 Мбайт
Продолжительность : 47 м. 19 с.
Общий поток : 2071 Кбит/сек
Программа кодирования : VirtualDubMod 1.5.10.3 | www.virtualdub-fr.org || (build 2550/release)
Библиотека кодирования : VirtualDubMod build 2550/release

Видео
Идентификатор : 0
Формат : MPEG-4 Visual
Профиль формата : Advanced Simple@L5
Параметр BVOP формата : 1
Параметр QPel формата : Нет
Параметр GMC формата : Без точки перехода
Параметр матрицы формата : Default (H.263)
Идентификатор кодека : XVID
Идентификатор кодека/Подсказка : XviD
Продолжительность : 47 м. 19 с.
Битрейт : 1868 Кбит/сек
Ширина : 688 пикселей
Высота : 512 пикселей
Соотношение сторон : 4:3
Частота кадров : 25,000 кадров/сек
Цветовое пространство : YUV
Субдискретизация насыщенности : 4:2:0
Битовая глубина : 8 бит
Тип развёртки : Прогрессивная
Метод сжатия : С потерями
Бит/(Пиксели*Кадры) : 0.203
Размер потока : 605 Мбайт (86%)
Библиотека кодирования : XviD 73

Аудио
Идентификатор : 1
Формат : AC-3
Формат/Информация : Audio Coding 3
Расширение режима : CM (complete main)
Параметр Endianness формата : Big
Идентификатор кодека : 2000
Продолжительность : 47 м. 18 с.
Вид битрейта : Постоянный
Битрейт : 192 Кбит/сек
Каналы : 2 канала
Расположение каналов : Front: L R
Частота : 48,0 КГц
Частота кадров : 31,250 кадров/сек (1536 spf)
Метод сжатия : С потерями
Размер потока : 65,0 Мбайт (9%)
Выравнивание : Разделение по промежуткам

pb.wtf



Скачать Крот через торрент http://s020.radikal.ru/i712/1509/09/f498ffd41350.jpg Скачать фильм Крот через торрент бесплантно в хорошем качестве Описание: "Крот" на языке спецслужб - человек, внедрённый в криминальные сферы. Ради работы в спецслужбах агент должен забыть всё, начиная ... 10 10 6
Торрент: Зарегистрирован [2019-04-23 07:51] · скачан: 54 раз
Статус: √ проверено
Размер: 8.21 GB
Как cкачать? Как скачать Крот через торрент | qTorrent

28-11-2019 20:33  

Отключить всю рекламу на сайте

    Дорогой пользователь! Огромная просьба, поблагодарите релизера, оцените раздачу и оставьте свои комментарий, если Вы скачали Крот через торрент бесплатно! Внесите свою лепту в развитие PiratBit!
    Комментировать посты могут только пользователи прошедшие не сложную регистрацию
    Показать сообщения:    

    Крот через торрент
    Скачать бесплатно Крот
    Крот скачать торрент
    Крот смотреть онлайн
    Cкачать фильм Крот бесплатно
    Крот скачать торрент в хорошем качестве
    Крот смотреть онлайн бесплатно в хорошем качестве


    Вы не можете начинать темы
    Вы не можете отвечать на сообщения
    Вы не можете редактировать свои сообщения
    Вы не можете удалять свои сообщения
    Вы не можете голосовать в опросах
    Вы не можете прикреплять файлы к сообщениям
    Вы можете скачивать файлы