Ссылка на приватное зеркало нашего сайта всего за 1$. Внимание количество ограничено!!!

2 сезон

iTunes

1 сезон

1

2 сезон

2 сезон

iTunes

1 сезон

RePack

30

Ultimate

ВАЖНО

ИГРА 18+

pack

RePack

MK11
pack

Забери бонус

RePack

jed

!!Акция!!

Alien_Rage

RePack

fifa19

RePack

Assassins Creed: Odyssey

RePack

NEED FOR SPEED™ PAYBACK

4 сезон

9 сезон

Бесстыжие 9 сезон

Все сериалы

все сериалы на PB.wtf

RePack

FAR CRY 5
  

Проект «Синяя книга» / Project Blue Book / Сезон: 1 / Серии: 1-10 из 10 (Роберт Стромберг, Норма Бэйли, Алекс Грейвз) [2019, Детектив, история, реальные события, WEB-DL 1080p] [MVO] (Кириллица) pb.wtf

Проект «Синяя книга» через торрент pb.wtf

Размер: 19.73 GB | Добавлен: 1 год 7 мес. назад | Торрент скачан:53 раза
Скачать  

09-01-2019 16:31 Проект «Синяя книга» Скачать торрент  

Проект «Синяя книга» / Project Blue Book
Информация о сериале

Год выпуска: 2019
Жанр: Детектив, история, реальные события
Страна: США
Продолжительность: 1 x ~ 00:45:00
Перевод: Профессиональный (многоголосый) *Кириллица*
Субтитры: английские

Режиссер: Роберт Стромберг, Норма Бэйли, Алекс Грейвз

В ролях: Эйден Гиллен, Майкл Маларки, Лора Меннелл, Ксения Соло, Майкл Харни, Нил МакДонаф

О фильме: Пятидесятые годы прошлого века. Астроном Дж. Аллен Хинек и капитан ВВС США Майкл Квинн разбираются со свидетельствами появления НЛО. В ходе расследования они натыкаются на правительственный заговор, скрывающий от населения правду.

Релиз - скриншот  

ratingскриншот  

Файл
Кодек: x264 (AVC)
Качество: WEB-DL 1080p
Видео: MPEG-4 AVC, ~ 3300 Кбит/с, 1920x960
Звук 1: Russian: 48 kHz, AC3, 2/0 (L,R) ch, ~192 kbps avg |Многоголосый закадровый, Кириллица|
Звук 2: English: 48 kHz, AAC, 2 ch, 160 Кбит/с
скриншот  скриншот  скриншот  
Общее
Уникальный идентификатор : 243640761607256953114488895396599547505 (0xB74B80FC00F8FE77B491F9F382CBC671)
Полное имя : S:\Project.Blue.Book.S01.1080p.AMZN.WEB-DL.Rus.Eng_TeamHD\Project.Blue.Book.S01E01.The.Fuller.Dogfight.1080p.AMZN.WEB-DL.Rus.Eng_TeamHD.mkv
Формат : Matroska
Версия формата : Version 4
Размер файла : 2,07 Гбайт
Продолжительность : 44 м. 16 с.
Общий поток : 6685 Кбит/сек
Название фильма : Project Blue Book S01E01 - ReJliz TeamHD by BenderBEST
Дата кодирования : UTC 2019-01-29 21:08:17
Программа кодирования : mkvmerge v8.3.0 ('Over the Horizon') 64bit
Библиотека кодирования : libebml v1.3.1 + libmatroska v1.4.2

Видео
Идентификатор : 1
Формат : AVC
Формат/Информация : Advanced Video Codec
Профиль формата : High@L4
Настройки формата : CABAC / 4 Ref Frames
Параметр CABAC формата : Да
Параметр RefFrames формата : 4 кадра
Идентификатор кодека : V_MPEG4/ISO/AVC
Продолжительность : 44 м. 16 с.
Вид битрейта : Постоянный
Битрейт : 6365 Кбит/сек
Номинальный битрейт : 10000 Кбит/сек
Ширина : 1920 пикселей
Высота : 960 пикселей
Соотношение сторон : 2,000
Режим частоты кадров : Постоянный
Частота кадров : 23,976 (24000/1001) кадра/сек
Цветовое пространство : YUV
Субдискретизация насыщенности : 4:2:0
Битовая глубина : 8 бит
Тип развёртки : Прогрессивная
Бит/(Пиксели*Кадры) : 0.144
Размер потока : 1,97 Гбайт (95%)
Default : Да
Forced : Нет
Цветовой диапазон : Limited
Основные цвета : BT.709
Характеристики трансфера : BT.709
Коэффициенты матрицы : BT.709

Аудио #1
Идентификатор : 2
Формат : AC-3
Формат/Информация : Audio Coding 3
Коммерческое название : Dolby Digital
Идентификатор кодека : A_AC3
Продолжительность : 44 м. 16 с.
Вид битрейта : Постоянный
Битрейт : 192 Кбит/сек
Каналы : 2 канала
Channel layout : L R
Частота : 48,0 КГц
Частота кадров : 31,250 кадров/сек (1536 SPF)
Битовая глубина : 16 бит
Метод сжатия : С потерями
Размер потока : 60,8 Мбайт (3%)
Заголовок : AC3 2.0 @ 192 kbps - MVO, Кириллица
Язык : Russian
ServiceKind/String : Complete Main
Default : Да
Forced : Да

Аудио #2
Идентификатор : 3
Формат : AAC LC
Формат/Информация : Advanced Audio Codec Low Complexity
Идентификатор кодека : A_AAC-2
Продолжительность : 44 м. 16 с.
Битрейт : 125 Кбит/сек
Каналы : 2 канала
Channel layout : L R
Частота : 48,0 КГц
Частота кадров : 46,875 кадров/сек (1024 SPF)
Метод сжатия : С потерями
Размер потока : 39,7 Мбайт (2%)
Заголовок : AAC 2.0 @ 160 kbps
Язык : English
Default : Нет
Forced : Нет

Текст #1
Идентификатор : 4
Формат : UTF-8
Идентификатор кодека : S_TEXT/UTF8
Идентификатор кодека/Информация : UTF-8 Plain Text
Продолжительность : 43 м. 52 с.
Битрейт : 114 бит/сек
ElementCount : 615
Размер потока : 36,7 Кбайт (0%)
Заголовок : Full
Язык : Russian
Default : Нет
Forced : Нет

Текст #2
Идентификатор : 5
Формат : UTF-8
Идентификатор кодека : S_TEXT/UTF8
Идентификатор кодека/Информация : UTF-8 Plain Text
Продолжительность : 44 м. 0 с.
Битрейт : 80 бит/сек
ElementCount : 905
Размер потока : 25,8 Кбайт (0%)
Заголовок : SDH
Язык : English
Default : Нет
Forced : Нет
Внимание! Раздача ведётся путём добавления новых серий; при каждом добавлении создаётся новый торрент. Чтобы начать докачку новой серии, пользователям необходимо сделать следующее:
(1) остановить скачивание,
(2) удалить старый торрент у себя из клиента (старые серии удалять не надо),
(3) скачать новый торрент и запустить его у себя в клиенте вместо старого, при этом указать клиенту путь в старую папку куда и должно происходить скачивание новых серий.
Ваш клиент при этом должен произвести хеширование (проверку) старой папки (если не производит сам - помогите ему сделать это), и будет докачивать только те серии которых у вас ещё нет. Старые серии при этом не удаляются, а продолжают раздаваться!
Eсли вы уже удалили старые серии, то предотвратить повторную закачку старых серий можно, отжав галочку в соответствующих местах при запуске нового торрента. По возможности, желательно не удалять старые серии как можно дольше чтобы релизёр не столько продолжал раздавать старые серии, а смог сконцентрироваться на новых.
pb.wtf



Скачать Проект «Синяя книга» через торрент https://i106.fastpic.ru/big/2019/0108/cc/98630f8d5fcd91e433a5510ca3e36bcc.jpg Скачать фильм Проект «Синяя книга» через торрент бесплантно в хорошем качестве О фильме: Пятидесятые годы прошлого века. Астроном Дж. Аллен Хинек и капитан ВВС США Майкл Квинн разбираются со свидетельствами появления ... 9.2 10 11
Торрент: Зарегистрирован [2019-04-23 12:04] · скачан: 53 раз
Статус: √ проверено
Размер: 19.73 GB
Как cкачать? Как скачать Проект «Синяя книга» через торрент | qTorrent

% Раздел Тема Автор DL S | L
Зарубежные сериалы [ 10.97 GB ] Проект засекречен / Проект "Синяя книга" / Project Blue Book / Сезон: 2 / Серия: 1-10 из 10 [2020 WEB-DL 720p] MVO [AlexFilm] bober100 Скачать
2 | 0
Зарубежные сериалы [ 6.09 GB ] Проект засекречен / Проект "Синяя книга" / Project Blue Book / Сезон: 2 / Серия: 1-9 из 10 [2020 WEB-DLRip] MVO [TVShows] bober100 Скачать
1 | 0
Зарубежные сериалы [ 11.17 GB ] Проект «Синяя книга» / Проект засекречен / Project Blue Book / Сезон: 2 / Серии: 1-10 из 10 [2020 WEB-DL 720p] [MVO] killermax2013 Скачать
1 | 0
Зарубежные сериалы [ 21.8 GB ] Проект «Синяя книга» / Проект засекречен / Project Blue Book / Сезон: 2 / Серии: 1-10 из 10 [2020 WEB-DL 1080p] [MVO] killermax2013 Скачать
1 | 0
Зарубежные сериалы [ 619 MB ] Проект засекречен / Проект "Синяя книга" / Project Blue Book / Сезон: 2 / Серия: 1- из 10 [2020 WEB-DLRip] MVO [Кириллица] bober100 Скачать
1 | 0
Зарубежные сериалы [ 6.15 GB ] Проект засекречен / Проект "Синяя книга" / Project Blue Book / Сезон: 2 / Серия: 1-10 из 10 [2020 WEB-DLRip] MVO [Lostfilm] bober100 Скачать
2 | 0
Зарубежные сериалы [ 21.02 GB ] Проект засекречен / Проект "Синяя книга" / Project Blue Book / Сезон: 2 / Серия: 1-10 из 10 [2020 WEB-DL 1080p] MVO [Кириллица] bober100 Скачать
1 | 0


Последний раз редактировалось: killermax2013 (2019-03-06 21:36), всего редактировалось 10 раз(а)

28-11-2019 20:33  

Отключить всю рекламу на сайте

09-01-2019 19:36 Проект «Синяя книга» Скачать торрент  

pb.wtf



24-01-2019 19:52 Проект «Синяя книга» Скачать торрент  

Я всегда Бро pb.wtf



22-01-2020 07:12 Проект «Синяя книга» Скачать торрент  

Сел смотреть первую серию, приготовился получать удовольствие. В результате чертыхнулся и отказался от дальнейшего просмотра. Ну на кой чёрт сюда опять лесбиянок приплели???pb.wtf



    Дорогой пользователь! Огромная просьба, поблагодарите релизера, оцените раздачу и оставьте свои комментарий, если Вы скачали Проект «Синяя книга» через торрент бесплатно! Внесите свою лепту в развитие PiratBit!
    Комментировать посты могут только пользователи прошедшие не сложную регистрацию
    Показать сообщения:    

    Проект «Синяя книга» через торрент
    Скачать бесплатно Проект «Синяя книга»
    Проект «Синяя книга» скачать торрент
    Проект «Синяя книга» смотреть онлайн
    Cкачать фильм Проект «Синяя книга» бесплатно
    Проект «Синяя книга» скачать торрент в хорошем качестве
    Проект «Синяя книга» смотреть онлайн бесплатно в хорошем качестве


    Вы не можете начинать темы
    Вы не можете отвечать на сообщения
    Вы не можете редактировать свои сообщения
    Вы не можете удалять свои сообщения
    Вы не можете голосовать в опросах
    Вы не можете прикреплять файлы к сообщениям
    Вы можете скачивать файлы