Ссылка на приватное зеркало всего за 1$. Внимание количество ограничено!!!

OK

1+1

iTunes

мы

OK

1

WEB-DLRip

Джокер

Пифагор

Ведьмак / The Witcher сериал

Лицензия

ПШазам

ОК

Оно 2

iTunes

30
pack

Вам бонус

ВАЖНО

!!Акция!!

Alien_RageХит недели

RePack

Resident Evil 21

ИГРА 18+

pack

RePack

jed

!!Акция!!

Alien_Rage

RePack

fifa19

RePack

Assassins Creed: Odyssey

RePack

NEED FOR SPEED™ PAYBACK

4 сезон

9 сезон

Бесстыжие 9 сезон

Все сериалы

все сериалы на PB.wtf

RePack

FAR CRY 5
  

VA - Driven By - The 90s (5CD) - 2019/ FLAC/ tracks +.cue/ lossless/ Pop, Electronic, Reggae pb.wtf

VA - Driven By - The 90s через торрент pb.wtf

Размер: 2.51 GB | Добавлен: 8 мес. назад | Торрент скачан:45 раз
Скачать  

23-04-2019 13:29 VA - Driven By - The 90s Скачать торрент  


VA - Driven By - The 90s (5CD)


Год издания: 2019
Страна: International
Жанр: Pop, Electronic, Reggae
Продолжительность: 06:15:59
Лейбл издания: Universal UMC
Страна-выпуска диска: EU
Номер по каталогу: DRIVEBX005
Формат: FLAC
Битрейт аудио: Lossless
Тип рипа: tracks +.cue
Наличие сканов в содержимом раздачи: да


01. Warren G And Nate Dogg - Regulate (4:08)
02. Montell Jordan - This Is How We Do It (3:38)
03. Salt-N-Pepa Feat. En Vogue - Whatta Man (3:34)
04. DNA Feat. Suzanne Vega - Tom's Diner (3:48)
05. Adamski And Seal - Killer (3:45)
06. Beats International - Dub Be Good To Me (3:38)
07. Crystal Waters - Gypsy Woman (La Da Dee La Da Da) (3:45)
08. Erykah Badu - On & On (3:45)
09. Soul II Soul - Keep On Movin' (3:36)
10. Young Disciples - Apparently Nothin' (4:00)
11. D-Influence - Rock With You (3:42)
12. Hil St Soul - Until You Come Back To Me (3:08)
13. The Drizabone Soul Family - Real Love (3:55)
14. Beverley Knight - Flavour Of The Old School (4:00)
15. M J Cole - Sincere (2:59)
16. Roni Size - Heroes (3:56)
17. Nuyorican Soul - It's Alright I Feel It (3:21)
18. Roni Size - Brown Paper Bag (3:47)
19. L L Cool J - Mama Said Knock You Out (4:49)
20. DJ Shadow - Midnight In A Perfect World (5:00)

01. 4 Non Blondes - What's Up? (4:14)
02. The Cranberries - Zombie (4:11)
03. Lenny Kravitz - Fly Away (3:41)
04. The Divinyls - I Touch Myself (3:45)
05. Babybird - You're Gorgeous (3:43)
06. The Cardigans - Lovefool (3:14)
07. Inspiral Carpets - This Is How It Feels (3:11)
08. The LA's - There She Goes (2:41)
09. Kim Wilde - If I Can't Have You (3:26)
10. Cathy Dennis - Touch Me (All Night Long) (3:27)
11. Dina Carroll - Ain't No Man (3:52)
12. Stereo MC's - Step It Up (3:54)
13. The Farm - All Together Now (4:00)
14. James - Sit Down (4:03)
15. Blind Melon - No Rain (3:17)
16. Eagle-Eye Cherry - Save Tonight (3:54)
17. Del Amitri - Roll To Me (2:13)
18. OMC - How Bizarre (3:46)
19. Thunder - Something About You (3:51)
20. Bruce Dickinson - All The Young Dudes (3:43)

01. Dream Warriors - My Definition Of A Boombastic Jazz Style (3:40)
02. US3 - Cantaloop (Flip Fantasia) (4:38)
03. Moloko - Sing It Back (4:38)
04. Kylie Minogue - Confide In Me (4:25)
05. Ultra Nate - Found A Cure (4:02)
06. Snap! - Ooops Up (4:05)
07. Ace Of Base - All That She Wants (3:31)
08. Todd Terry - Something Goin' On (3:33)
09. Technotronic - Pump Up The Jam (3:36)
10. Snap! - The Power (3:46)
11. Wamdue Project - King Of My Castle (3:33)
12. Nightcrawlers - Push The Feeling On (3:34)
13. Tony Di Bart - The Real Thing (3:34)
14. Dr. Alban - It's My Life (4:00)
15. Robin S - Show Me Love (4:11)
16. West End Feat. Sybil - The Love I Lost (4:10)
17. Sybil - When I'm Good And Ready (3:38)
18. Incognito - Always There (3:32)
19. Brothers In Rhythm - Such A Good Feeling (3:45)
20. 808 State & UB40 - One In Ten (3:55)

01. Bell Biv DeVoe - Poison (4:22)
02. Vanilla Ice - Ice Ice Baby (3:47)
03. Spice Girls - Wannabe (2:51)
04. MC Hammer - U Can't Touch This (4:11)
05. Chaka Demus & Pliers - Tease Me (3:10)
06. Reel 2 Real - Jazz It Up (4:10)
07. Shaggy - Bombastic (3:51)
08. Dawn Penn - You Don't Love Me (No No No) (3:15)
09. Charles & Eddie - Would I Lie To You? (3:32)
10. China Black - Searchin' (3:52)
11. D-Influence - Hypnotize (3:44)
12. Shanice - I Love Your Smile (3:47)
13. Des'ree - You Gotta Be (4:06)
14. Alison Moyet - Whispering Your Name (3:47)
15. The Blow Monkeys - Wait (3:08)
16. The Farm - Groovy Train (4:09)
17. Kula Shaker - Hush (2:55)
18. Super Furry Animals - Something 4 The Weekend (2:34)
19. Inspiral Carpets - Saturn 5 (3:56)
20. Madness - Lovestruck (3:49)

01. Coldcut Feat. Lisa Stansfield - People Hold On (3:57)
02. Barbara Tucker - Beautiful People (Original Club Mix) (3:59)
03. Aly-Us - Follow Me (Club Mix Edit) (3:29)
04. River Ocean Feat. India - Love And Happiness (Radio Edit) (4:02)
05. George Morel - Let's Groove (Edit) (3:28)
06. Loveland Feat. Rachel Mcfarlane - Let The Music (Lift You Up) (3:29)
07. Snap! - Rhythm Is A Dancer (3:42)
08. Ultra Nate - Free (Mood II Swing Radio Edit) (3:52)
09. Livin' Joy - Dreamer (3:42)
10. Josh Wink - Higher State Of Conciousness (Tweekin Acid Funk Edit) (3:05)
11. Powerhouse Feat. Duane Harden - What You Need (Full Intention Radio Edit) (3:21)
12. Reel 2 Real - Go On Move (4:12)
13. Heller & Farley Project - Ultra Flava (3:53)
14. CLS - Can You Feel It? (In House Dub) (4:43)
15. Sunscreem - Love U More (4:13)
16. Bob Marley Vs Funkstar De Luxe - Sun Is Shining (3:54)
17. Pizzaman - Trippin' On Sunshine (3:51)
18. Snap! - Mary Had A Little Boy (3:40)
19. Robin S - Luv 4 Luv (4:13)
20. 808 State & MC Tunes - The Only Rhyme That Bites (4:17)

Код:

Exact Audio Copy V1.3 from 2. September 2016

EAC extraction logfile from 11. April 2019, 16:13

Various / Driven By - The 90s - CD1

Used drive  : ATAPI   iHAS124   Y   Adapter: 1  ID: 0

Read mode               : Secure
Utilize accurate stream : Yes
Defeat audio cache      : No
Make use of C2 pointers : Yes

Read offset correction                      : 48
Overread into Lead-In and Lead-Out          : No
Fill up missing offset samples with silence : Yes
Delete leading and trailing silent blocks   : No
Null samples used in CRC calculations       : Yes
Used interface                              : Native Win32 interface for Win NT & 2000
Gap handling                                : Not detected, thus appended to previous track

Used output format              : User Defined Encoder
Selected bitrate                : 896 kBit/s
Quality                         : High
Add ID3 tag                     : No
Command line compressor         : C:\Program Files (x86)\Exact Audio Copy\FLAC\FLAC.EXE
Additional command line options : -6 -V -T "ARTIST=%artist%" -T "TITLE=%title%" -T "ALBUM=%albumtitle%" -T "DATE=%year%" -T "TRACKNUMBER=%tracknr%" -T "GENRE=%genre%" -T "COMMENT=%comment%" -T "BAND=%albuminterpret%" -T "ALBUMARTIST=%albuminterpret%" -T "COMPOSER=%composer%" %haslyrics%--tag-from-file=LYRICS="%lyricsfile%"%haslyrics% -T "DISCNUMBER=%cdnumber%" -T "TOTALDISCS=%totalcds%" -T "TOTALTRACKS=%numtracks%" %hascover%--picture="%coverfile%"%hascover% %source% -o %dest%

TOC of the extracted CD

     Track |   Start  |  Length  | Start sector | End sector
    ---------------------------------------------------------
        1  |  0:00.00 |  4:07.65 |         0    |    18589
        2  |  4:07.65 |  3:37.43 |     18590    |    34907
        3  |  7:45.33 |  3:33.63 |     34908    |    50945
        4  | 11:19.21 |  3:47.53 |     50946    |    68023
        5  | 15:06.74 |  3:45.16 |     68024    |    84914
        6  | 18:52.15 |  3:37.42 |     84915    |   101231
        7  | 22:29.57 |  3:45.31 |    101232    |   118137
        8  | 26:15.13 |  3:44.70 |    118138    |   135007
        9  | 30:00.08 |  3:36.37 |    135008    |   151244
       10  | 33:36.45 |  3:59.59 |    151245    |   169228
       11  | 37:36.29 |  3:41.64 |    169229    |   185867
       12  | 41:18.18 |  3:07.47 |    185868    |   199939
       13  | 44:25.65 |  3:55.08 |    199940    |   217572
       14  | 48:20.73 |  3:59.40 |    217573    |   235537
       15  | 52:20.38 |  2:58.46 |    235538    |   248933
       16  | 55:19.09 |  3:56.07 |    248934    |   266640
       17  | 59:15.16 |  3:21.26 |    266641    |   281741
       18  | 62:36.42 |  3:47.08 |    281742    |   298774
       19  | 66:23.50 |  4:49.29 |    298775    |   320478
       20  | 71:13.04 |  4:59.47 |    320479    |   342950

Track  1

     Filename A:\SORTED BY YEAR\1990s\DRIVEN BY - THE 90s\DRIVEN BY - THE 90s - CD1\01.Warren G And Nate Dogg - Regulate.wav

     Peak level 89.1 %
     Extraction speed 4.1 X
     Track quality 99.5 %
     Copy CRC 8576BE21
     Track not present in AccurateRip database
     Copy OK

Track  2

     Filename A:\SORTED BY YEAR\1990s\DRIVEN BY - THE 90s\DRIVEN BY - THE 90s - CD1\02.Montell Jordan - This Is How We Do It.wav

     Peak level 100.0 %
     Extraction speed 20.4 X
     Track quality 100.0 %
     Copy CRC 42665AEB
     Track not present in AccurateRip database
     Copy OK

Track  3

     Filename A:\SORTED BY YEAR\1990s\DRIVEN BY - THE 90s\DRIVEN BY - THE 90s - CD1\03.Salt-N-Pepa Feat. En Vogue - Whatta Man.wav

     Peak level 83.7 %
     Extraction speed 19.1 X
     Track quality 99.9 %
     Copy CRC 00080E21
     Track not present in AccurateRip database
     Copy OK

Track  4

     Filename A:\SORTED BY YEAR\1990s\DRIVEN BY - THE 90s\DRIVEN BY - THE 90s - CD1\04.DNA Feat. Suzanne Vega - Tom's Diner.wav

     Peak level 89.6 %
     Extraction speed 19.5 X
     Track quality 100.0 %
     Copy CRC 84E71FED
     Track not present in AccurateRip database
     Copy OK

Track  5

     Filename A:\SORTED BY YEAR\1990s\DRIVEN BY - THE 90s\DRIVEN BY - THE 90s - CD1\05.Adamski And Seal - Killer.wav

     Peak level 89.1 %
     Extraction speed 9.0 X
     Track quality 99.7 %
     Copy CRC 97D7CA9C
     Track not present in AccurateRip database
     Copy OK

Track  6

     Filename A:\SORTED BY YEAR\1990s\DRIVEN BY - THE 90s\DRIVEN BY - THE 90s - CD1\06.Beats International - Dub Be Good To Me.wav

     Peak level 100.0 %
     Extraction speed 25.3 X
     Track quality 100.0 %
     Copy CRC B8030CED
     Track not present in AccurateRip database
     Copy OK

Track  7

     Filename A:\SORTED BY YEAR\1990s\DRIVEN BY - THE 90s\DRIVEN BY - THE 90s - CD1\07.Crystal Waters - Gypsy Woman (La Da Dee La Da Da).wav

     Peak level 89.1 %
     Extraction speed 28.1 X
     Track quality 100.0 %
     Copy CRC 1EEAAC64
     Track not present in AccurateRip database
     Copy OK

Track  8

     Filename A:\SORTED BY YEAR\1990s\DRIVEN BY - THE 90s\DRIVEN BY - THE 90s - CD1\08.Erykah Badu - On & On.wav

     Peak level 100.0 %
     Extraction speed 12.3 X
     Track quality 99.8 %
     Copy CRC BB0282C1
     Track not present in AccurateRip database
     Copy OK

Track  9

     Filename A:\SORTED BY YEAR\1990s\DRIVEN BY - THE 90s\DRIVEN BY - THE 90s - CD1\09.Soul II Soul - Keep On Movin'.wav

     Peak level 100.0 %
     Extraction speed 8.4 X
     Track quality 99.6 %
     Copy CRC E9D0FC6C
     Track not present in AccurateRip database
     Copy OK

Track 10

     Filename A:\SORTED BY YEAR\1990s\DRIVEN BY - THE 90s\DRIVEN BY - THE 90s - CD1\10.Young Disciples - Apparently Nothin'.wav

     Peak level 90.2 %
     Extraction speed 14.0 X
     Track quality 99.8 %
     Copy CRC 66A2C849
     Track not present in AccurateRip database
     Copy OK

Track 11

     Filename A:\SORTED BY YEAR\1990s\DRIVEN BY - THE 90s\DRIVEN BY - THE 90s - CD1\11.D-Influence - Rock With You.wav

     Peak level 83.7 %
     Extraction speed 26.1 X
     Track quality 100.0 %
     Copy CRC 96D3758B
     Track not present in AccurateRip database
     Copy OK

Track 12

     Filename A:\SORTED BY YEAR\1990s\DRIVEN BY - THE 90s\DRIVEN BY - THE 90s - CD1\12.Hil St Soul - Until You Come Back To Me.wav

     Peak level 94.4 %
     Extraction speed 6.5 X
     Track quality 99.3 %
     Copy CRC 77CC4AA6
     Track not present in AccurateRip database
     Copy OK

Track 13

     Filename A:\SORTED BY YEAR\1990s\DRIVEN BY - THE 90s\DRIVEN BY - THE 90s - CD1\13.The Drizabone Soul Family - Real Love.wav

     Peak level 77.6 %
     Extraction speed 4.8 X
     Track quality 99.2 %
     Copy CRC C008274D
     Track not present in AccurateRip database
     Copy OK

Track 14

     Filename A:\SORTED BY YEAR\1990s\DRIVEN BY - THE 90s\DRIVEN BY - THE 90s - CD1\14.Beverley Knight - Flavour Of The Old School.wav

     Peak level 94.4 %
     Extraction speed 7.9 X
     Track quality 99.5 %
     Copy CRC 50BC5C73
     Track not present in AccurateRip database
     Copy OK

Track 15

     Filename A:\SORTED BY YEAR\1990s\DRIVEN BY - THE 90s\DRIVEN BY - THE 90s - CD1\15.M J Cole - Sincere.wav

     Peak level 100.0 %
     Extraction speed 7.2 X
     Track quality 99.5 %
     Copy CRC 7B31F562
     Track not present in AccurateRip database
     Copy OK

Track 16

     Filename A:\SORTED BY YEAR\1990s\DRIVEN BY - THE 90s\DRIVEN BY - THE 90s - CD1\16.Roni Size - Heroes.wav

     Peak level 81.6 %
     Extraction speed 7.4 X
     Track quality 99.4 %
     Copy CRC F329639C
     Track not present in AccurateRip database
     Copy OK

Track 17

     Filename A:\SORTED BY YEAR\1990s\DRIVEN BY - THE 90s\DRIVEN BY - THE 90s - CD1\17.Nuyorican Soul - It's Alright I Feel It.wav

     Peak level 88.7 %
     Extraction speed 8.6 X
     Track quality 99.6 %
     Copy CRC C3C31B67
     Track not present in AccurateRip database
     Copy OK

Track 18

     Filename A:\SORTED BY YEAR\1990s\DRIVEN BY - THE 90s\DRIVEN BY - THE 90s - CD1\18.Roni Size - Brown Paper Bag.wav

     Peak level 70.6 %
     Extraction speed 10.9 X
     Track quality 99.7 %
     Copy CRC 4D230540
     Track not present in AccurateRip database
     Copy OK

Track 19

     Filename A:\SORTED BY YEAR\1990s\DRIVEN BY - THE 90s\DRIVEN BY - THE 90s - CD1\19.L L Cool J - Mama Said Knock You Out.wav

     Peak level 100.0 %
     Extraction speed 7.0 X
     Track quality 99.4 %
     Copy CRC C12FD734
     Track not present in AccurateRip database
     Copy OK

Track 20

     Filename A:\SORTED BY YEAR\1990s\DRIVEN BY - THE 90s\DRIVEN BY - THE 90s - CD1\20.DJ Shadow - Midnight In A Perfect World.wav

     Peak level 83.1 %
     Extraction speed 7.4 X
     Track quality 99.4 %
     Copy CRC EB2A8653
     Track not present in AccurateRip database
     Copy OK

None of the tracks are present in the AccurateRip database

No errors occurred

End of status report

Код:

Exact Audio Copy V1.3 from 2. September 2016

EAC extraction logfile from 11. April 2019, 21:27

Various / Driven By - The 90s - CD2

Used drive  : ATAPI   iHAS124   Y   Adapter: 1  ID: 0

Read mode               : Secure
Utilize accurate stream : Yes
Defeat audio cache      : No
Make use of C2 pointers : Yes

Read offset correction                      : 48
Overread into Lead-In and Lead-Out          : No
Fill up missing offset samples with silence : Yes
Delete leading and trailing silent blocks   : No
Null samples used in CRC calculations       : Yes
Used interface                              : Native Win32 interface for Win NT & 2000
Gap handling                                : Not detected, thus appended to previous track

Used output format              : User Defined Encoder
Selected bitrate                : 896 kBit/s
Quality                         : High
Add ID3 tag                     : No
Command line compressor         : C:\Program Files (x86)\Exact Audio Copy\FLAC\FLAC.EXE
Additional command line options : -6 -V -T "ARTIST=%artist%" -T "TITLE=%title%" -T "ALBUM=%albumtitle%" -T "DATE=%year%" -T "TRACKNUMBER=%tracknr%" -T "GENRE=%genre%" -T "COMMENT=%comment%" -T "BAND=%albuminterpret%" -T "ALBUMARTIST=%albuminterpret%" -T "COMPOSER=%composer%" %haslyrics%--tag-from-file=LYRICS="%lyricsfile%"%haslyrics% -T "DISCNUMBER=%cdnumber%" -T "TOTALDISCS=%totalcds%" -T "TOTALTRACKS=%numtracks%" %hascover%--picture="%coverfile%"%hascover% %source% -o %dest%

TOC of the extracted CD

     Track |   Start  |  Length  | Start sector | End sector
    ---------------------------------------------------------
        1  |  0:00.00 |  4:14.16 |         0    |    19065
        2  |  4:14.16 |  4:10.59 |     19066    |    37874
        3  |  8:25.00 |  3:41.19 |     37875    |    54468
        4  | 12:06.19 |  3:45.34 |     54469    |    71377
        5  | 15:51.53 |  3:42.46 |     71378    |    88073
        6  | 19:34.24 |  3:14.17 |     88074    |   102640
        7  | 22:48.41 |  3:11.19 |    102641    |   116984
        8  | 25:59.60 |  2:41.26 |    116985    |   129085
        9  | 28:41.11 |  3:26.14 |    129086    |   144549
       10  | 32:07.25 |  3:26.47 |    144550    |   160046
       11  | 35:33.72 |  3:51.69 |    160047    |   177440
       12  | 39:25.66 |  3:54.36 |    177441    |   195026
       13  | 43:20.27 |  3:59.59 |    195027    |   213010
       14  | 47:20.11 |  4:02.47 |    213011    |   231207
       15  | 51:22.58 |  3:16.52 |    231208    |   245959
       16  | 54:39.35 |  3:53.52 |    245960    |   263486
       17  | 58:33.12 |  2:12.50 |    263487    |   273436
       18  | 60:45.62 |  3:45.50 |    273437    |   290361
       19  | 64:31.37 |  3:50.49 |    290362    |   307660
       20  | 68:22.11 |  3:42.56 |    307661    |   324366

Track  1

     Filename A:\SORTED BY YEAR\1990s\DRIVEN BY - THE 90s\DRIVEN BY - THE 90s - CD2\01.4 Non Blondes - What's Up.wav

     Peak level 84.1 %
     Extraction speed 9.3 X
     Track quality 100.0 %
     Copy CRC 54C638A3
     Track not present in AccurateRip database
     Copy OK

Track  2

     Filename A:\SORTED BY YEAR\1990s\DRIVEN BY - THE 90s\DRIVEN BY - THE 90s - CD2\02.The Cranberries - Zombie.wav

     Peak level 82.2 %
     Extraction speed 10.6 X
     Track quality 99.9 %
     Copy CRC A654443C
     Track not present in AccurateRip database
     Copy OK

Track  3

     Filename A:\SORTED BY YEAR\1990s\DRIVEN BY - THE 90s\DRIVEN BY - THE 90s - CD2\03.Lenny Kravitz - Fly Away.wav

     Peak level 100.0 %
     Extraction speed 12.0 X
     Track quality 100.0 %
     Copy CRC 85C0C18F
     Track not present in AccurateRip database
     Copy OK

Track  4

     Filename A:\SORTED BY YEAR\1990s\DRIVEN BY - THE 90s\DRIVEN BY - THE 90s - CD2\04.The Divinyls - I Touch Myself.wav

     Peak level 89.1 %
     Extraction speed 12.4 X
     Track quality 100.0 %
     Copy CRC 486E0ABF
     Track not present in AccurateRip database
     Copy OK

Track  5

     Filename A:\SORTED BY YEAR\1990s\DRIVEN BY - THE 90s\DRIVEN BY - THE 90s - CD2\05.Babybird - You're Gorgeous.wav

     Peak level 100.0 %
     Extraction speed 13.0 X
     Track quality 100.0 %
     Copy CRC A477A0B4
     Track not present in AccurateRip database
     Copy OK

Track  6

     Filename A:\SORTED BY YEAR\1990s\DRIVEN BY - THE 90s\DRIVEN BY - THE 90s - CD2\06.The Cardigans - Lovefool.wav

     Peak level 99.8 %
     Extraction speed 13.7 X
     Track quality 100.0 %
     Copy CRC E1DD35B9
     Track not present in AccurateRip database
     Copy OK

Track  7

     Filename A:\SORTED BY YEAR\1990s\DRIVEN BY - THE 90s\DRIVEN BY - THE 90s - CD2\07.Inspiral Carpets - This Is How It Feels.wav

     Peak level 100.0 %
     Extraction speed 14.8 X
     Track quality 100.0 %
     Copy CRC 0D4DE2E7
     Track not present in AccurateRip database
     Copy OK

Track  8

     Filename A:\SORTED BY YEAR\1990s\DRIVEN BY - THE 90s\DRIVEN BY - THE 90s - CD2\08.The LA's - There She Goes.wav

     Peak level 100.0 %
     Extraction speed 15.4 X
     Track quality 100.0 %
     Copy CRC 4701BD42
     Track not present in AccurateRip database
     Copy OK

Track  9

     Filename A:\SORTED BY YEAR\1990s\DRIVEN BY - THE 90s\DRIVEN BY - THE 90s - CD2\09.Kim Wilde - If I Can't Have You.wav

     Peak level 100.0 %
     Extraction speed 15.1 X
     Track quality 99.8 %
     Copy CRC 0836AB42
     Track not present in AccurateRip database
     Copy OK

Track 10

     Filename A:\SORTED BY YEAR\1990s\DRIVEN BY - THE 90s\DRIVEN BY - THE 90s - CD2\10.Cathy Dennis - Touch Me (All Night Long).wav

     Peak level 100.0 %
     Extraction speed 16.4 X
     Track quality 100.0 %
     Copy CRC 9E7E1279
     Track not present in AccurateRip database
     Copy OK

Track 11

     Filename A:\SORTED BY YEAR\1990s\DRIVEN BY - THE 90s\DRIVEN BY - THE 90s - CD2\11.Dina Carroll - Ain't No Man.wav

     Peak level 100.0 %
     Extraction speed 16.2 X
     Track quality 100.0 %
     Copy CRC 39DE2860
     Track not present in AccurateRip database
     Copy OK

Track 12

     Filename A:\SORTED BY YEAR\1990s\DRIVEN BY - THE 90s\DRIVEN BY - THE 90s - CD2\12.Stereo MC's - Step It Up.wav

     Peak level 100.0 %
     Extraction speed 16.7 X
     Track quality 100.0 %
     Copy CRC B31E3D34
     Track not present in AccurateRip database
     Copy OK

Track 13

     Filename A:\SORTED BY YEAR\1990s\DRIVEN BY - THE 90s\DRIVEN BY - THE 90s - CD2\13.The Farm - All Together Now.wav

     Peak level 100.0 %
     Extraction speed 18.0 X
     Track quality 100.0 %
     Copy CRC 73597495
     Track not present in AccurateRip database
     Copy OK

Track 14

     Filename A:\SORTED BY YEAR\1990s\DRIVEN BY - THE 90s\DRIVEN BY - THE 90s - CD2\14.James - Sit Down.wav

     Peak level 100.0 %
     Extraction speed 18.6 X
     Track quality 100.0 %
     Copy CRC 43F71444
     Track not present in AccurateRip database
     Copy OK

Track 15

     Filename A:\SORTED BY YEAR\1990s\DRIVEN BY - THE 90s\DRIVEN BY - THE 90s - CD2\15.Blind Melon - No Rain.wav

     Peak level 100.0 %
     Extraction speed 19.2 X
     Track quality 100.0 %
     Copy CRC FF191F3A
     Track not present in AccurateRip database
     Copy OK

Track 16

     Filename A:\SORTED BY YEAR\1990s\DRIVEN BY - THE 90s\DRIVEN BY - THE 90s - CD2\16.Eagle-Eye Cherry - Save Tonight.wav

     Peak level 100.0 %
     Extraction speed 19.6 X
     Track quality 100.0 %
     Copy CRC 3EE6B460
     Track not present in AccurateRip database
     Copy OK

Track 17

     Filename A:\SORTED BY YEAR\1990s\DRIVEN BY - THE 90s\DRIVEN BY - THE 90s - CD2\17.Del Amitri - Roll To Me.wav

     Peak level 100.0 %
     Extraction speed 20.4 X
     Track quality 100.0 %
     Copy CRC 5CD38559
     Track not present in AccurateRip database
     Copy OK

Track 18

     Filename A:\SORTED BY YEAR\1990s\DRIVEN BY - THE 90s\DRIVEN BY - THE 90s - CD2\18.OMC - How Bizarre.wav

     Peak level 99.2 %
     Extraction speed 20.4 X
     Track quality 100.0 %
     Copy CRC 117E851E
     Track not present in AccurateRip database
     Copy OK

Track 19

     Filename A:\SORTED BY YEAR\1990s\DRIVEN BY - THE 90s\DRIVEN BY - THE 90s - CD2\19.Thunder - Something About You.wav

     Peak level 100.0 %
     Extraction speed 19.7 X
     Track quality 100.0 %
     Copy CRC 344F5C70
     Track not present in AccurateRip database
     Copy OK

Track 20

     Filename A:\SORTED BY YEAR\1990s\DRIVEN BY - THE 90s\DRIVEN BY - THE 90s - CD2\20.Bruce Dickinson - All The Young Dudes.wav

     Peak level 98.8 %
     Extraction speed 20.1 X
     Track quality 99.9 %
     Copy CRC 15032F51
     Track not present in AccurateRip database
     Copy OK

None of the tracks are present in the AccurateRip database

No errors occurred

End of status report

Код:

Exact Audio Copy V1.3 from 2. September 2016

EAC extraction logfile from 11. April 2019, 22:01

Various / Driven By - The 90s - CD3

Used drive  : ATAPI   iHAS124   Y   Adapter: 1  ID: 0

Read mode               : Secure
Utilize accurate stream : Yes
Defeat audio cache      : No
Make use of C2 pointers : Yes

Read offset correction                      : 48
Overread into Lead-In and Lead-Out          : No
Fill up missing offset samples with silence : Yes
Delete leading and trailing silent blocks   : No
Null samples used in CRC calculations       : Yes
Used interface                              : Native Win32 interface for Win NT & 2000
Gap handling                                : Not detected, thus appended to previous track

Used output format              : User Defined Encoder
Selected bitrate                : 896 kBit/s
Quality                         : High
Add ID3 tag                     : No
Command line compressor         : C:\Program Files (x86)\Exact Audio Copy\FLAC\FLAC.EXE
Additional command line options : -6 -V -T "ARTIST=%artist%" -T "TITLE=%title%" -T "ALBUM=%albumtitle%" -T "DATE=%year%" -T "TRACKNUMBER=%tracknr%" -T "GENRE=%genre%" -T "COMMENT=%comment%" -T "BAND=%albuminterpret%" -T "ALBUMARTIST=%albuminterpret%" -T "COMPOSER=%composer%" %haslyrics%--tag-from-file=LYRICS="%lyricsfile%"%haslyrics% -T "DISCNUMBER=%cdnumber%" -T "TOTALDISCS=%totalcds%" -T "TOTALTRACKS=%numtracks%" %hascover%--picture="%coverfile%"%hascover% %source% -o %dest%

TOC of the extracted CD

     Track |   Start  |  Length  | Start sector | End sector
    ---------------------------------------------------------
        1  |  0:00.00 |  3:39.44 |         0    |    16468
        2  |  3:39.44 |  4:37.73 |     16469    |    37316
        3  |  8:17.42 |  4:37.67 |     37317    |    58158
        4  | 12:55.34 |  4:25.16 |     58159    |    78049
        5  | 17:20.50 |  4:01.54 |     78050    |    96178
        6  | 21:22.29 |  4:05.11 |     96179    |   114564
        7  | 25:27.40 |  3:30.49 |    114565    |   130363
        8  | 28:58.14 |  3:33.08 |    130364    |   146346
        9  | 32:31.22 |  3:35.65 |    146347    |   162536
       10  | 36:07.12 |  3:46.35 |    162537    |   179521
       11  | 39:53.47 |  3:32.46 |    179522    |   195467
       12  | 43:26.18 |  3:33.43 |    195468    |   211485
       13  | 46:59.61 |  3:33.50 |    211486    |   227510
       14  | 50:33.36 |  4:00.29 |    227511    |   245539
       15  | 54:33.65 |  4:11.34 |    245540    |   264398
       16  | 58:45.24 |  4:09.48 |    264399    |   283121
       17  | 62:54.72 |  3:38.08 |    283122    |   299479
       18  | 66:33.05 |  3:31.55 |    299480    |   315359
       19  | 70:04.60 |  3:44.54 |    315360    |   332213
       20  | 73:49.39 |  3:55.35 |    332214    |   349873

Track  1

     Filename A:\SORTED BY YEAR\1990s\DRIVEN BY - THE 90s\DRIVEN BY - THE 90s - CD3\01.Dream Warriors - My Definition Of A Boombastic Jazz Style.wav

     Peak level 83.0 %
     Extraction speed 14.9 X
     Track quality 100.0 %
     Copy CRC 2062EADA
     Track not present in AccurateRip database
     Copy OK

Track  2

     Filename A:\SORTED BY YEAR\1990s\DRIVEN BY - THE 90s\DRIVEN BY - THE 90s - CD3\02.US3 - Cantaloop (Flip Fantasia).wav

     Peak level 98.5 %
     Extraction speed 21.2 X
     Track quality 100.0 %
     Copy CRC DC94349C
     Track not present in AccurateRip database
     Copy OK

Track  3

     Filename A:\SORTED BY YEAR\1990s\DRIVEN BY - THE 90s\DRIVEN BY - THE 90s - CD3\03.Moloko - Sing It Back.wav

     Peak level 77.8 %
     Extraction speed 19.8 X
     Track quality 99.9 %
     Copy CRC 188BC642
     Track not present in AccurateRip database
     Copy OK

Track  4

     Filename A:\SORTED BY YEAR\1990s\DRIVEN BY - THE 90s\DRIVEN BY - THE 90s - CD3\04.Kylie Minogue - Confide In Me.wav

     Peak level 100.0 %
     Extraction speed 14.2 X
     Track quality 100.0 %
     Copy CRC 8C7F82D4
     Track not present in AccurateRip database
     Copy OK

Track  5

     Filename A:\SORTED BY YEAR\1990s\DRIVEN BY - THE 90s\DRIVEN BY - THE 90s - CD3\05.Ultra Nate - Found A Cure.wav

     Peak level 89.1 %
     Extraction speed 25.6 X
     Track quality 100.0 %
     Copy CRC 4F507231
     Track not present in AccurateRip database
     Copy OK

Track  6

     Filename A:\SORTED BY YEAR\1990s\DRIVEN BY - THE 90s\DRIVEN BY - THE 90s - CD3\06.Snap! - Ooops Up.wav

     Peak level 100.0 %
     Extraction speed 27.9 X
     Track quality 100.0 %
     Copy CRC 1D6E2F69
     Track not present in AccurateRip database
     Copy OK

Track  7

     Filename A:\SORTED BY YEAR\1990s\DRIVEN BY - THE 90s\DRIVEN BY - THE 90s - CD3\07.Ace Of Base - All That She Wants.wav

     Peak level 96.5 %
     Extraction speed 23.6 X
     Track quality 99.8 %
     Copy CRC FCA12C42
     Track not present in AccurateRip database
     Copy OK

Track  8

     Filename A:\SORTED BY YEAR\1990s\DRIVEN BY - THE 90s\DRIVEN BY - THE 90s - CD3\08.Todd Terry - Something Goin' On.wav

     Peak level 94.4 %
     Extraction speed 22.6 X
     Track quality 100.0 %
     Copy CRC CA8B90E0
     Track not present in AccurateRip database
     Copy OK

Track  9

     Filename A:\SORTED BY YEAR\1990s\DRIVEN BY - THE 90s\DRIVEN BY - THE 90s - CD3\09.Technotronic - Pump Up The Jam.wav

     Peak level 83.1 %
     Extraction speed 31.3 X
     Track quality 100.0 %
     Copy CRC 26D6A00F
     Track not present in AccurateRip database
     Copy OK

Track 10

     Filename A:\SORTED BY YEAR\1990s\DRIVEN BY - THE 90s\DRIVEN BY - THE 90s - CD3\10.Snap! - The Power.wav

     Peak level 100.0 %
     Extraction speed 31.0 X
     Track quality 100.0 %
     Copy CRC 52AF4DD9
     Track not present in AccurateRip database
     Copy OK

Track 11

     Filename A:\SORTED BY YEAR\1990s\DRIVEN BY - THE 90s\DRIVEN BY - THE 90s - CD3\11.Wamdue Project - King Of My Castle.wav

     Peak level 87.5 %
     Extraction speed 33.5 X
     Track quality 100.0 %
     Copy CRC 7F4DA24B
     Track not present in AccurateRip database
     Copy OK

Track 12

     Filename A:\SORTED BY YEAR\1990s\DRIVEN BY - THE 90s\DRIVEN BY - THE 90s - CD3\12.Nightcrawlers - Push The Feeling On.wav

     Peak level 100.0 %
     Extraction speed 34.5 X
     Track quality 100.0 %
     Copy CRC E14EB5E8
     Track not present in AccurateRip database
     Copy OK

Track 13

     Filename A:\SORTED BY YEAR\1990s\DRIVEN BY - THE 90s\DRIVEN BY - THE 90s - CD3\13.Tony Di Bart - The Real Thing.wav

     Peak level 100.0 %
     Extraction speed 33.0 X
     Track quality 100.0 %
     Copy CRC 438C5005
     Track not present in AccurateRip database
     Copy OK

Track 14

     Filename A:\SORTED BY YEAR\1990s\DRIVEN BY - THE 90s\DRIVEN BY - THE 90s - CD3\14.Dr. Alban - It's My Life.wav

     Peak level 99.0 %
     Extraction speed 36.3 X
     Track quality 100.0 %
     Copy CRC 9AD5E586
     Track not present in AccurateRip database
     Copy OK

Track 15

     Filename A:\SORTED BY YEAR\1990s\DRIVEN BY - THE 90s\DRIVEN BY - THE 90s - CD3\15.Robin S - Show Me Love.wav

     Peak level 92.1 %
     Extraction speed 37.3 X
     Track quality 100.0 %
     Copy CRC 1807BCD6
     Track not present in AccurateRip database
     Copy OK

Track 16

     Filename A:\SORTED BY YEAR\1990s\DRIVEN BY - THE 90s\DRIVEN BY - THE 90s - CD3\16.West End Feat. Sybil - The Love I Lost.wav

     Peak level 100.0 %
     Extraction speed 38.2 X
     Track quality 100.0 %
     Copy CRC 8D0A0404
     Track not present in AccurateRip database
     Copy OK

Track 17

     Filename A:\SORTED BY YEAR\1990s\DRIVEN BY - THE 90s\DRIVEN BY - THE 90s - CD3\17.Sybil - When I'm Good And Ready.wav

     Peak level 100.0 %
     Extraction speed 39.1 X
     Track quality 100.0 %
     Copy CRC 4819BF97
     Track not present in AccurateRip database
     Copy OK

Track 18

     Filename A:\SORTED BY YEAR\1990s\DRIVEN BY - THE 90s\DRIVEN BY - THE 90s - CD3\18.Incognito - Always There.wav

     Peak level 94.4 %
     Extraction speed 14.3 X
     Track quality 99.8 %
     Copy CRC 996FCA37
     Track not present in AccurateRip database
     Copy OK

Track 19

     Filename A:\SORTED BY YEAR\1990s\DRIVEN BY - THE 90s\DRIVEN BY - THE 90s - CD3\19.Brothers In Rhythm - Such A Good Feeling.wav

     Peak level 100.0 %
     Extraction speed 40.5 X
     Track quality 100.0 %
     Copy CRC 378FF206
     Track not present in AccurateRip database
     Copy OK

Track 20

     Filename A:\SORTED BY YEAR\1990s\DRIVEN BY - THE 90s\DRIVEN BY - THE 90s - CD3\20.808 State & UB40 - One In Ten.wav

     Peak level 100.0 %
     Extraction speed 21.8 X
     Track quality 99.9 %
     Copy CRC 2C4122AB
     Track not present in AccurateRip database
     Copy OK

None of the tracks are present in the AccurateRip database

No errors occurred

End of status report

Код:

Exact Audio Copy V1.3 from 2. September 2016

EAC extraction logfile from 12. April 2019, 15:10

Various / Driven By - The 90s - CD4

Used drive  : ATAPI   iHAS124   Y   Adapter: 1  ID: 0

Read mode               : Secure
Utilize accurate stream : Yes
Defeat audio cache      : No
Make use of C2 pointers : Yes

Read offset correction                      : 48
Overread into Lead-In and Lead-Out          : No
Fill up missing offset samples with silence : Yes
Delete leading and trailing silent blocks   : No
Null samples used in CRC calculations       : Yes
Used interface                              : Native Win32 interface for Win NT & 2000
Gap handling                                : Not detected, thus appended to previous track

Used output format              : User Defined Encoder
Selected bitrate                : 896 kBit/s
Quality                         : High
Add ID3 tag                     : No
Command line compressor         : C:\Program Files (x86)\Exact Audio Copy\FLAC\FLAC.EXE
Additional command line options : -6 -V -T "ARTIST=%artist%" -T "TITLE=%title%" -T "ALBUM=%albumtitle%" -T "DATE=%year%" -T "TRACKNUMBER=%tracknr%" -T "GENRE=%genre%" -T "COMMENT=%comment%" -T "BAND=%albuminterpret%" -T "ALBUMARTIST=%albuminterpret%" -T "COMPOSER=%composer%" %haslyrics%--tag-from-file=LYRICS="%lyricsfile%"%haslyrics% -T "DISCNUMBER=%cdnumber%" -T "TOTALDISCS=%totalcds%" -T "TOTALTRACKS=%numtracks%" %hascover%--picture="%coverfile%"%hascover% %source% -o %dest%

TOC of the extracted CD

     Track |   Start  |  Length  | Start sector | End sector
    ---------------------------------------------------------
        1  |  0:00.00 |  4:22.23 |         0    |    19672
        2  |  4:22.23 |  3:47.33 |     19673    |    36730
        3  |  8:09.56 |  2:51.30 |     36731    |    49585
        4  | 11:01.11 |  4:11.26 |     49586    |    68436
        5  | 15:12.37 |  3:10.34 |     68437    |    82720
        6  | 18:22.71 |  4:09.58 |     82721    |   101453
        7  | 22:32.54 |  3:50.53 |    101454    |   118756
        8  | 26:23.32 |  3:14.45 |    118757    |   133351
        9  | 29:38.02 |  3:31.65 |    133352    |   149241
       10  | 33:09.67 |  3:51.66 |    149242    |   166632
       11  | 37:01.58 |  3:43.49 |    166633    |   183406
       12  | 40:45.32 |  3:47.22 |    183407    |   200453
       13  | 44:32.54 |  4:06.05 |    200454    |   218908
       14  | 48:38.59 |  3:47.18 |    218909    |   235951
       15  | 52:26.02 |  3:07.71 |    235952    |   250047
       16  | 55:33.73 |  4:09.02 |    250048    |   268724
       17  | 59:43.00 |  2:54.68 |    268725    |   281842
       18  | 62:37.68 |  2:34.32 |    281843    |   293424
       19  | 65:12.25 |  3:56.24 |    293425    |   311148
       20  | 69:08.49 |  3:49.36 |    311149    |   328359

Track  1

     Filename A:\SORTED BY YEAR\1990s\DRIVEN BY - THE 90s\DRIVEN BY - THE 90s - CD4\01.Bell Biv DeVoe - Poison.wav

     Peak level 87.3 %
     Extraction speed 9.6 X
     Track quality 100.0 %
     Copy CRC B118BF91
     Track not present in AccurateRip database
     Copy OK

Track  2

     Filename A:\SORTED BY YEAR\1990s\DRIVEN BY - THE 90s\DRIVEN BY - THE 90s - CD4\02.Vanilla Ice - Ice Ice Baby.wav

     Peak level 100.0 %
     Extraction speed 10.1 X
     Track quality 100.0 %
     Copy CRC 685F3B75
     Track not present in AccurateRip database
     Copy OK

Track  3

     Filename A:\SORTED BY YEAR\1990s\DRIVEN BY - THE 90s\DRIVEN BY - THE 90s - CD4\03.Spice Girls - Wannabe.wav

     Peak level 87.4 %
     Extraction speed 10.3 X
     Track quality 100.0 %
     Copy CRC F43800C1
     Track not present in AccurateRip database
     Copy OK

Track  4

     Filename A:\SORTED BY YEAR\1990s\DRIVEN BY - THE 90s\DRIVEN BY - THE 90s - CD4\04.MC Hammer - U Can't Touch This.wav

     Peak level 100.0 %
     Extraction speed 10.7 X
     Track quality 99.8 %
     Copy CRC 3475342D
     Track not present in AccurateRip database
     Copy OK

Track  5

     Filename A:\SORTED BY YEAR\1990s\DRIVEN BY - THE 90s\DRIVEN BY - THE 90s - CD4\05.Chaka Demus & Pliers - Tease Me.wav

     Peak level 89.1 %
     Extraction speed 12.7 X
     Track quality 100.0 %
     Copy CRC 6F4DB03B
     Track not present in AccurateRip database
     Copy OK

Track  6

     Filename A:\SORTED BY YEAR\1990s\DRIVEN BY - THE 90s\DRIVEN BY - THE 90s - CD4\06.Reel 2 Real - Jazz It Up.wav

     Peak level 100.0 %
     Extraction speed 13.4 X
     Track quality 100.0 %
     Copy CRC BA26333F
     Track not present in AccurateRip database
     Copy OK

Track  7

     Filename A:\SORTED BY YEAR\1990s\DRIVEN BY - THE 90s\DRIVEN BY - THE 90s - CD4\07.Shaggy - Bombastic.wav

     Peak level 89.1 %
     Extraction speed 14.1 X
     Track quality 99.9 %
     Copy CRC FE5511F0
     Track not present in AccurateRip database
     Copy OK

Track  8

     Filename A:\SORTED BY YEAR\1990s\DRIVEN BY - THE 90s\DRIVEN BY - THE 90s - CD4\08.Dawn Penn - You Don't Love Me (No No No).wav

     Peak level 100.0 %
     Extraction speed 14.8 X
     Track quality 100.0 %
     Copy CRC C366D700
     Track not present in AccurateRip database
     Copy OK

Track  9

     Filename A:\SORTED BY YEAR\1990s\DRIVEN BY - THE 90s\DRIVEN BY - THE 90s - CD4\09.Charles & Eddie - Would I Lie To You.wav

     Peak level 89.1 %
     Extraction speed 15.3 X
     Track quality 100.0 %
     Copy CRC 8D83836A
     Track not present in AccurateRip database
     Copy OK

Track 10

     Filename A:\SORTED BY YEAR\1990s\DRIVEN BY - THE 90s\DRIVEN BY - THE 90s - CD4\10.China Black - Searchin'.wav

     Peak level 100.0 %
     Extraction speed 15.9 X
     Track quality 100.0 %
     Copy CRC 817DD7F8
     Track not present in AccurateRip database
     Copy OK

Track 11

     Filename A:\SORTED BY YEAR\1990s\DRIVEN BY - THE 90s\DRIVEN BY - THE 90s - CD4\11.D-Influence - Hypnotize.wav

     Peak level 87.8 %
     Extraction speed 16.4 X
     Track quality 100.0 %
     Copy CRC 8BD2952F
     Track not present in AccurateRip database
     Copy OK

Track 12

     Filename A:\SORTED BY YEAR\1990s\DRIVEN BY - THE 90s\DRIVEN BY - THE 90s - CD4\12.Shanice - I Love Your Smile.wav

     Peak level 94.4 %
     Extraction speed 17.7 X
     Track quality 100.0 %
     Copy CRC DEC8FB98
     Track not present in AccurateRip database
     Copy OK

Track 13

     Filename A:\SORTED BY YEAR\1990s\DRIVEN BY - THE 90s\DRIVEN BY - THE 90s - CD4\13.Des'ree - You Gotta Be.wav

     Peak level 100.0 %
     Extraction speed 18.2 X
     Track quality 100.0 %
     Copy CRC 1ED5F786
     Track not present in AccurateRip database
     Copy OK

Track 14

     Filename A:\SORTED BY YEAR\1990s\DRIVEN BY - THE 90s\DRIVEN BY - THE 90s - CD4\14.Alison Moyet - Whispering Your Name.wav

     Peak level 100.0 %
     Extraction speed 18.8 X
     Track quality 100.0 %
     Copy CRC B170D741
     Track not present in AccurateRip database
     Copy OK

Track 15

     Filename A:\SORTED BY YEAR\1990s\DRIVEN BY - THE 90s\DRIVEN BY - THE 90s - CD4\15.The Blow Monkeys - Wait.wav

     Peak level 100.0 %
     Extraction speed 18.3 X
     Track quality 100.0 %
     Copy CRC 82CEB188
     Track not present in AccurateRip database
     Copy OK

Track 16

     Filename A:\SORTED BY YEAR\1990s\DRIVEN BY - THE 90s\DRIVEN BY - THE 90s - CD4\16.The Farm - Groovy Train.wav

     Peak level 100.0 %
     Extraction speed 19.1 X
     Track quality 100.0 %
     Copy CRC 01773EA8
     Track not present in AccurateRip database
     Copy OK

Track 17

     Filename A:\SORTED BY YEAR\1990s\DRIVEN BY - THE 90s\DRIVEN BY - THE 90s - CD4\17.Kula Shaker - Hush.wav

     Peak level 92.2 %
     Extraction speed 19.1 X
     Track quality 100.0 %
     Copy CRC 923C7EA6
     Track not present in AccurateRip database
     Copy OK

Track 18

     Filename A:\SORTED BY YEAR\1990s\DRIVEN BY - THE 90s\DRIVEN BY - THE 90s - CD4\18.Super Furry Animals - Something 4 The Weekend.wav

     Peak level 98.0 %
     Extraction speed 19.7 X
     Track quality 100.0 %
     Copy CRC A12C96F7
     Track not present in AccurateRip database
     Copy OK

Track 19

     Filename A:\SORTED BY YEAR\1990s\DRIVEN BY - THE 90s\DRIVEN BY - THE 90s - CD4\19.Inspiral Carpets - Saturn 5.wav

     Peak level 100.0 %
     Extraction speed 20.0 X
     Track quality 100.0 %
     Copy CRC 10D9DE2C
     Track not present in AccurateRip database
     Copy OK

Track 20

     Filename A:\SORTED BY YEAR\1990s\DRIVEN BY - THE 90s\DRIVEN BY - THE 90s - CD4\20.Madness - Lovestruck.wav

     Peak level 88.5 %
     Extraction speed 21.4 X
     Track quality 100.0 %
     Copy CRC A917BC94
     Track not present in AccurateRip database
     Copy OK

None of the tracks are present in the AccurateRip database

No errors occurred

End of status report

Код:

Exact Audio Copy V1.3 from 2. September 2016

EAC extraction logfile from 12. April 2019, 17:52

Various / Driven By - The 90s - CD5

Used drive  : ATAPI   iHAS124   Y   Adapter: 1  ID: 0

Read mode               : Secure
Utilize accurate stream : Yes
Defeat audio cache      : No
Make use of C2 pointers : Yes

Read offset correction                      : 48
Overread into Lead-In and Lead-Out          : No
Fill up missing offset samples with silence : Yes
Delete leading and trailing silent blocks   : No
Null samples used in CRC calculations       : Yes
Used interface                              : Native Win32 interface for Win NT & 2000
Gap handling                                : Not detected, thus appended to previous track

Used output format              : User Defined Encoder
Selected bitrate                : 896 kBit/s
Quality                         : High
Add ID3 tag                     : No
Command line compressor         : C:\Program Files (x86)\Exact Audio Copy\FLAC\FLAC.EXE
Additional command line options : -6 -V -T "ARTIST=%artist%" -T "TITLE=%title%" -T "ALBUM=%albumtitle%" -T "DATE=%year%" -T "TRACKNUMBER=%tracknr%" -T "GENRE=%genre%" -T "COMMENT=%comment%" -T "BAND=%albuminterpret%" -T "ALBUMARTIST=%albuminterpret%" -T "COMPOSER=%composer%" %haslyrics%--tag-from-file=LYRICS="%lyricsfile%"%haslyrics% -T "DISCNUMBER=%cdnumber%" -T "TOTALDISCS=%totalcds%" -T "TOTALTRACKS=%numtracks%" %hascover%--picture="%coverfile%"%hascover% %source% -o %dest%

TOC of the extracted CD

     Track |   Start  |  Length  | Start sector | End sector
    ---------------------------------------------------------
        1  |  0:00.00 |  3:57.01 |         0    |    17775
        2  |  3:57.01 |  3:58.74 |     17776    |    35699
        3  |  7:56.00 |  3:28.70 |     35700    |    51369
        4  | 11:24.70 |  4:01.71 |     51370    |    69515
        5  | 15:26.66 |  3:27.46 |     69516    |    85086
        6  | 18:54.37 |  3:28.46 |     85087    |   100732
        7  | 22:23.08 |  3:42.01 |    100733    |   117383
        8  | 26:05.09 |  3:51.45 |    117384    |   134753
        9  | 29:56.54 |  3:41.39 |    134754    |   151367
       10  | 33:38.18 |  3:04.59 |    151368    |   165226
       11  | 36:43.02 |  3:20.55 |    165227    |   180281
       12  | 40:03.57 |  4:11.38 |    180282    |   199144
       13  | 44:15.20 |  3:52.68 |    199145    |   216612
       14  | 48:08.13 |  4:43.29 |    216613    |   237866
       15  | 52:51.42 |  4:12.46 |    237867    |   256812
       16  | 57:04.13 |  3:53.45 |    256813    |   274332
       17  | 60:57.58 |  3:50.49 |    274333    |   291631
       18  | 64:48.32 |  3:39.65 |    291632    |   308121
       19  | 68:28.22 |  4:12.45 |    308122    |   327066
       20  | 72:40.67 |  4:17.23 |    327067    |   346364

Track  1

     Filename A:\SORTED BY YEAR\1990s\DRIVEN BY - THE 90s\DRIVEN BY - THE 90s - CD5\01.Coldcut Feat. Lisa Stansfield - People Hold On.wav

     Peak level 100.0 %
     Extraction speed 9.2 X
     Track quality 100.0 %
     Copy CRC B4BA8999
     Track not present in AccurateRip database
     Copy OK

Track  2

     Filename A:\SORTED BY YEAR\1990s\DRIVEN BY - THE 90s\DRIVEN BY - THE 90s - CD5\02.Barbara Tucker - Beautiful People (Original Club Mix).wav

     Peak level 100.0 %
     Extraction speed 10.5 X
     Track quality 99.9 %
     Copy CRC 102AAA60
     Track not present in AccurateRip database
     Copy OK

Track  3

     Filename A:\SORTED BY YEAR\1990s\DRIVEN BY - THE 90s\DRIVEN BY - THE 90s - CD5\03.Aly-Us - Follow Me (Club Mix Edit).wav

     Peak level 100.0 %
     Extraction speed 11.3 X
     Track quality 100.0 %
     Copy CRC 573594C3
     Track not present in AccurateRip database
     Copy OK

Track  4

     Filename A:\SORTED BY YEAR\1990s\DRIVEN BY - THE 90s\DRIVEN BY - THE 90s - CD5\04.River Ocean Feat. India - Love And Happiness (Radio Edit).wav

     Peak level 98.8 %
     Extraction speed 12.5 X
     Track quality 100.0 %
     Copy CRC 80A1D40F
     Track not present in AccurateRip database
     Copy OK

Track  5

     Filename A:\SORTED BY YEAR\1990s\DRIVEN BY - THE 90s\DRIVEN BY - THE 90s - CD5\05.George Morel - Let's Groove (Edit).wav

     Peak level 100.0 %
     Extraction speed 12.9 X
     Track quality 100.0 %
     Copy CRC 627307D7
     Track not present in AccurateRip database
     Copy OK

Track  6

     Filename A:\SORTED BY YEAR\1990s\DRIVEN BY - THE 90s\DRIVEN BY - THE 90s - CD5\06.Loveland Feat. Rachel Mcfarlane - Let The Music (Lift You Up).wav

     Peak level 99.9 %
     Extraction speed 13.4 X
     Track quality 100.0 %
     Copy CRC 7EA35BFF
     Track not present in AccurateRip database
     Copy OK

Track  7

     Filename A:\SORTED BY YEAR\1990s\DRIVEN BY - THE 90s\DRIVEN BY - THE 90s - CD5\07.Snap! - Rhythm Is A Dancer.wav

     Peak level 100.0 %
     Extraction speed 14.0 X
     Track quality 100.0 %
     Copy CRC 5858071C
     Track not present in AccurateRip database
     Copy OK

Track  8

     Filename A:\SORTED BY YEAR\1990s\DRIVEN BY - THE 90s\DRIVEN BY - THE 90s - CD5\08.Ultra Nate - Free (Mood II Swing Radio Edit).wav

     Peak level 97.0 %
     Extraction speed 14.6 X
     Track quality 100.0 %
     Copy CRC 07F5676F
     Track not present in AccurateRip database
     Copy OK

Track  9

     Filename A:\SORTED BY YEAR\1990s\DRIVEN BY - THE 90s\DRIVEN BY - THE 90s - CD5\09.Livin' Joy - Dreamer.wav

     Peak level 97.7 %
     Extraction speed 15.9 X
     Track quality 100.0 %
     Copy CRC B1830156
     Track not present in AccurateRip database
     Copy OK

Track 10

     Filename A:\SORTED BY YEAR\1990s\DRIVEN BY - THE 90s\DRIVEN BY - THE 90s - CD5\10.Josh Wink - Higher State Of Conciousness (Tweekin Acid Funk Edit).wav

     Peak level 99.9 %
     Extraction speed 15.6 X
     Track quality 100.0 %
     Copy CRC 439E8164
     Track not present in AccurateRip database
     Copy OK

Track 11

     Filename A:\SORTED BY YEAR\1990s\DRIVEN BY - THE 90s\DRIVEN BY - THE 90s - CD5\11.Powerhouse Feat. Duane Harden - What You Need (Full Intention Radio Edit).wav

     Peak level 100.0 %
     Extraction speed 16.1 X
     Track quality 99.8 %
     Copy CRC 8E3772AF
     Track not present in AccurateRip database
     Copy OK

Track 12

     Filename A:\SORTED BY YEAR\1990s\DRIVEN BY - THE 90s\DRIVEN BY - THE 90s - CD5\12.Reel 2 Real - Go On Move.wav

     Peak level 100.0 %
     Extraction speed 17.4 X
     Track quality 100.0 %
     Copy CRC C0BCE9F8
     Track not present in AccurateRip database
     Copy OK

Track 13

     Filename A:\SORTED BY YEAR\1990s\DRIVEN BY - THE 90s\DRIVEN BY - THE 90s - CD5\13.Heller & Farley Project - Ultra Flava.wav

     Peak level 100.0 %
     Extraction speed 17.2 X
     Track quality 100.0 %
     Copy CRC 18D02CBE
     Track not present in AccurateRip database
     Copy OK

Track 14

     Filename A:\SORTED BY YEAR\1990s\DRIVEN BY - THE 90s\DRIVEN BY - THE 90s - CD5\14.CLS - Can You Feel It (In House Dub).wav

     Peak level 98.8 %
     Extraction speed 18.5 X
     Track quality 100.0 %
     Copy CRC 8AF53EA2
     Track not present in AccurateRip database
     Copy OK

Track 15

     Filename A:\SORTED BY YEAR\1990s\DRIVEN BY - THE 90s\DRIVEN BY - THE 90s - CD5\15.Sunscreem - Love U More.wav

     Peak level 100.0 %
     Extraction speed 18.1 X
     Track quality 100.0 %
     Copy CRC 2ECBA661
     Track not present in AccurateRip database
     Copy OK

Track 16

     Filename A:\SORTED BY YEAR\1990s\DRIVEN BY - THE 90s\DRIVEN BY - THE 90s - CD5\16.Bob Marley Vs Funkstar De Luxe - Sun Is Shining.wav

     Peak level 100.0 %
     Extraction speed 18.7 X
     Track quality 99.9 %
     Copy CRC 6B330B96
     Track not present in AccurateRip database
     Copy OK

Track 17

     Filename A:\SORTED BY YEAR\1990s\DRIVEN BY - THE 90s\DRIVEN BY - THE 90s - CD5\17.Pizzaman - Trippin' On Sunshine.wav

     Peak level 100.0 %
     Extraction speed 19.2 X
     Track quality 100.0 %
     Copy CRC 190FDCC5
     Track not present in AccurateRip database
     Copy OK

Track 18

     Filename A:\SORTED BY YEAR\1990s\DRIVEN BY - THE 90s\DRIVEN BY - THE 90s - CD5\18.Snap! - Mary Had A Little Boy.wav

     Peak level 100.0 %
     Extraction speed 19.5 X
     Track quality 99.9 %
     Copy CRC 97469817
     Track not present in AccurateRip database
     Copy OK

Track 19

     Filename A:\SORTED BY YEAR\1990s\DRIVEN BY - THE 90s\DRIVEN BY - THE 90s - CD5\19.Robin S - Luv 4 Luv.wav

     Peak level 100.0 %
     Extraction speed 20.4 X
     Track quality 100.0 %
     Copy CRC ED354A45
     Track not present in AccurateRip database
     Copy OK

Track 20

     Filename A:\SORTED BY YEAR\1990s\DRIVEN BY - THE 90s\DRIVEN BY - THE 90s - CD5\20.808 State & MC Tunes - The Only Rhyme That Bites.wav

     Peak level 97.7 %
     Extraction speed 21.6 X
     Track quality 100.0 %
     Copy CRC 22C31748
     Track not present in AccurateRip database
     Copy OK

None of the tracks are present in the AccurateRip database

No errors occurred

End of status report

Код:

REM GENRE 90s/Pop
REM DATE 2019
REM DISCID 2A11DC14
REM DISCNUMBER 1
REM TOTALDISCS 5
REM COMMENT "Exact Audio Copy V1.3"
PERFORMER "Various"
TITLE "Driven By - The 90s - CD1"
FILE "01.Warren G And Nate Dogg - Regulate.flac" WAVE
  TRACK 01 AUDIO
    PERFORMER "Warren G And Nate Dogg"
    TITLE "Regulate"
    INDEX 01 00:00:00
FILE "02.Montell Jordan - This Is How We Do It.flac" WAVE
  TRACK 02 AUDIO
    PERFORMER "Montell Jordan"
    TITLE "This Is How We Do It"
    INDEX 01 00:00:00
FILE "03.Salt-N-Pepa Feat. En Vogue - Whatta Man.flac" WAVE
  TRACK 03 AUDIO
    PERFORMER "Salt-N-Pepa Feat. En Vogue"
    TITLE "Whatta Man"
    INDEX 01 00:00:00
FILE "04.DNA Feat. Suzanne Vega - Tom's Diner.flac" WAVE
  TRACK 04 AUDIO
    PERFORMER "DNA Feat. Suzanne Vega"
    TITLE "Tom's Diner"
    INDEX 01 00:00:00
FILE "05.Adamski And Seal - Killer.flac" WAVE
  TRACK 05 AUDIO
    PERFORMER "Adamski And Seal"
    TITLE "Killer"
    INDEX 01 00:00:00
FILE "06.Beats International - Dub Be Good To Me.flac" WAVE
  TRACK 06 AUDIO
    PERFORMER "Beats International"
    TITLE "Dub Be Good To Me"
    INDEX 01 00:00:00
FILE "07.Crystal Waters - Gypsy Woman (La Da Dee La Da Da).flac" WAVE
  TRACK 07 AUDIO
    PERFORMER "Crystal Waters"
    TITLE "Gypsy Woman (La Da Dee La Da Da)"
    INDEX 01 00:00:00
FILE "08.Erykah Badu - On & On.flac" WAVE
  TRACK 08 AUDIO
    PERFORMER "Erykah Badu"
    TITLE "On & On"
    INDEX 01 00:00:00
FILE "09.Soul II Soul - Keep On Movin'.flac" WAVE
  TRACK 09 AUDIO
    PERFORMER "Soul II Soul"
    TITLE "Keep On Movin'"
    INDEX 01 00:00:00
FILE "10.Young Disciples - Apparently Nothin'.flac" WAVE
  TRACK 10 AUDIO
    PERFORMER "Young Disciples"
    TITLE "Apparently Nothin'"
    INDEX 01 00:00:00
FILE "11.D-Influence - Rock With You.flac" WAVE
  TRACK 11 AUDIO
    PERFORMER "D-Influence"
    TITLE "Rock With You"
    INDEX 01 00:00:00
FILE "12.Hil St Soul - Until You Come Back To Me.flac" WAVE
  TRACK 12 AUDIO
    PERFORMER "Hil St Soul"
    TITLE "Until You Come Back To Me"
    INDEX 01 00:00:00
FILE "13.The Drizabone Soul Family - Real Love.flac" WAVE
  TRACK 13 AUDIO
    PERFORMER "The Drizabone Soul Family"
    TITLE "Real Love"
    INDEX 01 00:00:00
FILE "14.Beverley Knight - Flavour Of The Old School.flac" WAVE
  TRACK 14 AUDIO
    PERFORMER "Beverley Knight"
    TITLE "Flavour Of The Old School"
    INDEX 01 00:00:00
FILE "15.M J Cole - Sincere.flac" WAVE
  TRACK 15 AUDIO
    PERFORMER "M J Cole"
    TITLE "Sincere"
    INDEX 01 00:00:00
FILE "16.Roni Size - Heroes.flac" WAVE
  TRACK 16 AUDIO
    PERFORMER "Roni Size"
    TITLE "Heroes"
    INDEX 01 00:00:00
FILE "17.Nuyorican Soul - It's Alright I Feel It.flac" WAVE
  TRACK 17 AUDIO
    PERFORMER "Nuyorican Soul"
    TITLE "It's Alright I Feel It"
    INDEX 01 00:00:00
FILE "18.Roni Size - Brown Paper Bag.flac" WAVE
  TRACK 18 AUDIO
    PERFORMER "Roni Size"
    TITLE "Brown Paper Bag"
    INDEX 01 00:00:00
FILE "19.L L Cool J - Mama Said Knock You Out.flac" WAVE
  TRACK 19 AUDIO
    PERFORMER "L L Cool J"
    TITLE "Mama Said Knock You Out"
    INDEX 01 00:00:00
FILE "20.DJ Shadow - Midnight In A Perfect World.flac" WAVE
  TRACK 20 AUDIO
    PERFORMER "DJ Shadow"
    TITLE "Midnight In A Perfect World"
    INDEX 01 00:00:00

Код:

REM GENRE 90s/Pop
REM DATE 2019
REM DISCID 1B10E414
REM DISCNUMBER 2
REM TOTALDISCS 5
REM COMMENT "Exact Audio Copy V1.3"
PERFORMER "Various"
TITLE "Driven By - The 90s - CD2"
FILE "01.4 Non Blondes - What's Up.flac" WAVE
  TRACK 01 AUDIO
    PERFORMER "4 Non Blondes"
    TITLE "What's Up?"
    INDEX 01 00:00:00
FILE "02.The Cranberries - Zombie.flac" WAVE
  TRACK 02 AUDIO
    PERFORMER "The Cranberries"
    TITLE "Zombie"
    INDEX 01 00:00:00
FILE "03.Lenny Kravitz - Fly Away.flac" WAVE
  TRACK 03 AUDIO
    PERFORMER "Lenny Kravitz"
    TITLE "Fly Away"
    INDEX 01 00:00:00
FILE "04.The Divinyls - I Touch Myself.flac" WAVE
  TRACK 04 AUDIO
    PERFORMER "The Divinyls"
    TITLE "I Touch Myself"
    INDEX 01 00:00:00
FILE "05.Babybird - You're Gorgeous.flac" WAVE
  TRACK 05 AUDIO
    PERFORMER "Babybird"
    TITLE "You're Gorgeous"
    INDEX 01 00:00:00
FILE "06.The Cardigans - Lovefool.flac" WAVE
  TRACK 06 AUDIO
    PERFORMER "The Cardigans"
    TITLE "Lovefool"
    INDEX 01 00:00:00
FILE "07.Inspiral Carpets - This Is How It Feels.flac" WAVE
  TRACK 07 AUDIO
    PERFORMER "Inspiral Carpets"
    TITLE "This Is How It Feels"
    INDEX 01 00:00:00
FILE "08.The LA's - There She Goes.flac" WAVE
  TRACK 08 AUDIO
    PERFORMER "The LA's"
    TITLE "There She Goes"
    INDEX 01 00:00:00
FILE "09.Kim Wilde - If I Can't Have You.flac" WAVE
  TRACK 09 AUDIO
    PERFORMER "Kim Wilde"
    TITLE "If I Can't Have You"
    INDEX 01 00:00:00
FILE "10.Cathy Dennis - Touch Me (All Night Long).flac" WAVE
  TRACK 10 AUDIO
    PERFORMER "Cathy Dennis"
    TITLE "Touch Me (All Night Long)"
    INDEX 01 00:00:00
FILE "11.Dina Carroll - Ain't No Man.flac" WAVE
  TRACK 11 AUDIO
    PERFORMER "Dina Carroll"
    TITLE "Ain't No Man"
    INDEX 01 00:00:00
FILE "12.Stereo MC's - Step It Up.flac" WAVE
  TRACK 12 AUDIO
    PERFORMER "Stereo MC's"
    TITLE "Step It Up"
    INDEX 01 00:00:00
FILE "13.The Farm - All Together Now.flac" WAVE
  TRACK 13 AUDIO
    PERFORMER "The Farm"
    TITLE "All Together Now"
    INDEX 01 00:00:00
FILE "14.James - Sit Down.flac" WAVE
  TRACK 14 AUDIO
    PERFORMER "James"
    TITLE "Sit Down"
    INDEX 01 00:00:00
FILE "15.Blind Melon - No Rain.flac" WAVE
  TRACK 15 AUDIO
    PERFORMER "Blind Melon"
    TITLE "No Rain"
    INDEX 01 00:00:00
FILE "16.Eagle-Eye Cherry - Save Tonight.flac" WAVE
  TRACK 16 AUDIO
    PERFORMER "Eagle-Eye Cherry"
    TITLE "Save Tonight"
    INDEX 01 00:00:00
FILE "17.Del Amitri - Roll To Me.flac" WAVE
  TRACK 17 AUDIO
    PERFORMER "Del Amitri"
    TITLE "Roll To Me"
    INDEX 01 00:00:00
FILE "18.OMC - How Bizarre.flac" WAVE
  TRACK 18 AUDIO
    PERFORMER "OMC"
    TITLE "How Bizarre"
    INDEX 01 00:00:00
FILE "19.Thunder - Something About You.flac" WAVE
  TRACK 19 AUDIO
    PERFORMER "Thunder"
    TITLE "Something About You"
    INDEX 01 00:00:00
FILE "20.Bruce Dickinson - All The Young Dudes.flac" WAVE
  TRACK 20 AUDIO
    PERFORMER "Bruce Dickinson"
    TITLE "All The Young Dudes"
    INDEX 01 00:00:00

Код:

REM GENRE 90s/Electronic
REM DATE 2019
REM DISCID 30123814
REM DISCNUMBER 3
REM TOTALDISCS 5
REM COMMENT "Exact Audio Copy V1.3"
PERFORMER "Various"
TITLE "Driven By - The 90s - CD3"
FILE "01.Dream Warriors - My Definition Of A Boombastic Jazz Style.flac" WAVE
  TRACK 01 AUDIO
    PERFORMER "Dream Warriors"
    TITLE "My Definition Of A Boombastic Jazz Style"
    INDEX 01 00:00:00
FILE "02.US3 - Cantaloop (Flip Fantasia).flac" WAVE
  TRACK 02 AUDIO
    PERFORMER "US3"
    TITLE "Cantaloop (Flip Fantasia)"
    INDEX 01 00:00:00
FILE "03.Moloko - Sing It Back.flac" WAVE
  TRACK 03 AUDIO
    PERFORMER "Moloko"
    TITLE "Sing It Back"
    INDEX 01 00:00:00
FILE "04.Kylie Minogue - Confide In Me.flac" WAVE
  TRACK 04 AUDIO
    PERFORMER "Kylie Minogue"
    TITLE "Confide In Me"
    INDEX 01 00:00:00
FILE "05.Ultra Nate - Found A Cure.flac" WAVE
  TRACK 05 AUDIO
    PERFORMER "Ultra Nate"
    TITLE "Found A Cure"
    INDEX 01 00:00:00
FILE "06.Snap! - Ooops Up.flac" WAVE
  TRACK 06 AUDIO
    PERFORMER "Snap!"
    TITLE "Ooops Up"
    INDEX 01 00:00:00
FILE "07.Ace Of Base - All That She Wants.flac" WAVE
  TRACK 07 AUDIO
    PERFORMER "Ace Of Base"
    TITLE "All That She Wants"
    INDEX 01 00:00:00
FILE "08.Todd Terry - Something Goin' On.flac" WAVE
  TRACK 08 AUDIO
    PERFORMER "Todd Terry"
    TITLE "Something Goin' On"
    INDEX 01 00:00:00
FILE "09.Technotronic - Pump Up The Jam.flac" WAVE
  TRACK 09 AUDIO
    PERFORMER "Technotronic"
    TITLE "Pump Up The Jam"
    INDEX 01 00:00:00
FILE "10.Snap! - The Power.flac" WAVE
  TRACK 10 AUDIO
    PERFORMER "Snap!"
    TITLE "The Power"
    INDEX 01 00:00:00
FILE "11.Wamdue Project - King Of My Castle.flac" WAVE
  TRACK 11 AUDIO
    PERFORMER "Wamdue Project"
    TITLE "King Of My Castle"
    INDEX 01 00:00:00
FILE "12.Nightcrawlers - Push The Feeling On.flac" WAVE
  TRACK 12 AUDIO
    PERFORMER "Nightcrawlers"
    TITLE "Push The Feeling On"
    INDEX 01 00:00:00
FILE "13.Tony Di Bart - The Real Thing.flac" WAVE
  TRACK 13 AUDIO
    PERFORMER "Tony Di Bart"
    TITLE "The Real Thing"
    INDEX 01 00:00:00
FILE "14.Dr. Alban - It's My Life.flac" WAVE
  TRACK 14 AUDIO
    PERFORMER "Dr. Alban"
    TITLE "It's My Life"
    INDEX 01 00:00:00
FILE "15.Robin S - Show Me Love.flac" WAVE
  TRACK 15 AUDIO
    PERFORMER "Robin S"
    TITLE "Show Me Love"
    INDEX 01 00:00:00
FILE "16.West End Feat. Sybil - The Love I Lost.flac" WAVE
  TRACK 16 AUDIO
    PERFORMER "West End Feat. Sybil"
    TITLE "The Love I Lost"
    INDEX 01 00:00:00
FILE "17.Sybil - When I'm Good And Ready.flac" WAVE
  TRACK 17 AUDIO
    PERFORMER "Sybil"
    TITLE "When I'm Good And Ready"
    INDEX 01 00:00:00
FILE "18.Incognito - Always There.flac" WAVE
  TRACK 18 AUDIO
    PERFORMER "Incognito"
    TITLE "Always There"
    INDEX 01 00:00:00
FILE "19.Brothers In Rhythm - Such A Good Feeling.flac" WAVE
  TRACK 19 AUDIO
    PERFORMER "Brothers In Rhythm"
    TITLE "Such A Good Feeling"
    INDEX 01 00:00:00
FILE "20.808 State & UB40 - One In Ten.flac" WAVE
  TRACK 20 AUDIO
    PERFORMER "808 State & UB40"
    TITLE "One In Ten"
    INDEX 01 00:00:00

Код:

REM GENRE 90s/Pop
REM DATE 2019
REM DISCID 24111A14
REM DISCNUMBER 4
REM TOTALDISCS 5
REM COMMENT "Exact Audio Copy V1.3"
PERFORMER "Various"
TITLE "Driven By - The 90s - CD4"
FILE "01.Bell Biv DeVoe - Poison.flac" WAVE
  TRACK 01 AUDIO
    PERFORMER "Bell Biv DeVoe"
    TITLE "Poison"
    INDEX 01 00:00:00
FILE "02.Vanilla Ice - Ice Ice Baby.flac" WAVE
  TRACK 02 AUDIO
    PERFORMER "Vanilla Ice"
    TITLE "Ice Ice Baby"
    INDEX 01 00:00:00
FILE "03.Spice Girls - Wannabe.flac" WAVE
  TRACK 03 AUDIO
    PERFORMER "Spice Girls"
    TITLE "Wannabe"
    INDEX 01 00:00:00
FILE "04.MC Hammer - U Can't Touch This.flac" WAVE
  TRACK 04 AUDIO
    PERFORMER "MC Hammer"
    TITLE "U Can't Touch This"
    INDEX 01 00:00:00
FILE "05.Chaka Demus & Pliers - Tease Me.flac" WAVE
  TRACK 05 AUDIO
    PERFORMER "Chaka Demus & Pliers"
    TITLE "Tease Me"
    INDEX 01 00:00:00
FILE "06.Reel 2 Real - Jazz It Up.flac" WAVE
  TRACK 06 AUDIO
    PERFORMER "Reel 2 Real"
    TITLE "Jazz It Up"
    INDEX 01 00:00:00
FILE "07.Shaggy - Bombastic.flac" WAVE
  TRACK 07 AUDIO
    PERFORMER "Shaggy"
    TITLE "Bombastic"
    INDEX 01 00:00:00
FILE "08.Dawn Penn - You Don't Love Me (No No No).flac" WAVE
  TRACK 08 AUDIO
    PERFORMER "Dawn Penn"
    TITLE "You Don't Love Me (No No No)"
    INDEX 01 00:00:00
FILE "09.Charles & Eddie - Would I Lie To You.flac" WAVE
  TRACK 09 AUDIO
    PERFORMER "Charles & Eddie"
    TITLE "Would I Lie To You?"
    INDEX 01 00:00:00
FILE "10.China Black - Searchin'.flac" WAVE
  TRACK 10 AUDIO
    PERFORMER "China Black"
    TITLE "Searchin'"
    INDEX 01 00:00:00
FILE "11.D-Influence - Hypnotize.flac" WAVE
  TRACK 11 AUDIO
    PERFORMER "D-Influence"
    TITLE "Hypnotize"
    INDEX 01 00:00:00
FILE "12.Shanice - I Love Your Smile.flac" WAVE
  TRACK 12 AUDIO
    PERFORMER "Shanice"
    TITLE "I Love Your Smile"
    INDEX 01 00:00:00
FILE "13.Des'ree - You Gotta Be.flac" WAVE
  TRACK 13 AUDIO
    PERFORMER "Des'ree"
    TITLE "You Gotta Be"
    INDEX 01 00:00:00
FILE "14.Alison Moyet - Whispering Your Name.flac" WAVE
  TRACK 14 AUDIO
    PERFORMER "Alison Moyet"
    TITLE "Whispering Your Name"
    INDEX 01 00:00:00
FILE "15.The Blow Monkeys - Wait.flac" WAVE
  TRACK 15 AUDIO
    PERFORMER "The Blow Monkeys"
    TITLE "Wait"
    INDEX 01 00:00:00
FILE "16.The Farm - Groovy Train.flac" WAVE
  TRACK 16 AUDIO
    PERFORMER "The Farm"
    TITLE "Groovy Train"
    INDEX 01 00:00:00
FILE "17.Kula Shaker - Hush.flac" WAVE
  TRACK 17 AUDIO
    PERFORMER "Kula Shaker"
    TITLE "Hush"
    INDEX 01 00:00:00
FILE "18.Super Furry Animals - Something 4 The Weekend.flac" WAVE
  TRACK 18 AUDIO
    PERFORMER "Super Furry Animals"
    TITLE "Something 4 The Weekend"
    INDEX 01 00:00:00
FILE "19.Inspiral Carpets - Saturn 5.flac" WAVE
  TRACK 19 AUDIO
    PERFORMER "Inspiral Carpets"
    TITLE "Saturn 5"
    INDEX 01 00:00:00
FILE "20.Madness - Lovestruck.flac" WAVE
  TRACK 20 AUDIO
    PERFORMER "Madness"
    TITLE "Lovestruck"
    INDEX 01 00:00:00

Код:

REM GENRE 90s/Electronic
REM DATE 2019
REM DISCID 2B120A14
REM DISCNUMBER 5
REM TOTALDISCS 5
REM COMMENT "Exact Audio Copy V1.3"
PERFORMER "Various"
TITLE "Driven By - The 90s - CD5"
FILE "01.Coldcut Feat. Lisa Stansfield - People Hold On.flac" WAVE
  TRACK 01 AUDIO
    PERFORMER "Coldcut Feat. Lisa Stansfield"
    TITLE "People Hold On"
    INDEX 01 00:00:00
FILE "02.Barbara Tucker - Beautiful People (Original Club Mix).flac" WAVE
  TRACK 02 AUDIO
    PERFORMER "Barbara Tucker"
    TITLE "Beautiful People (Original Club Mix)"
    INDEX 01 00:00:00
FILE "03.Aly-Us - Follow Me (Club Mix Edit).flac" WAVE
  TRACK 03 AUDIO
    PERFORMER "Aly-Us"
    TITLE "Follow Me (Club Mix Edit)"
    INDEX 01 00:00:00
FILE "04.River Ocean Feat. India - Love And Happiness (Radio Edit).flac" WAVE
  TRACK 04 AUDIO
    PERFORMER "River Ocean Feat. India"
    TITLE "Love And Happiness (Radio Edit)"
    INDEX 01 00:00:00
FILE "05.George Morel - Let's Groove (Edit).flac" WAVE
  TRACK 05 AUDIO
    PERFORMER "George Morel"
    TITLE "Let's Groove (Edit)"
    INDEX 01 00:00:00
FILE "06.Loveland Feat. Rachel Mcfarlane - Let The Music (Lift You Up).flac" WAVE
  TRACK 06 AUDIO
    PERFORMER "Loveland Feat. Rachel Mcfarlane"
    TITLE "Let The Music (Lift You Up)"
    INDEX 01 00:00:00
FILE "07.Snap! - Rhythm Is A Dancer.flac" WAVE
  TRACK 07 AUDIO
    PERFORMER "Snap!"
    TITLE "Rhythm Is A Dancer"
    INDEX 01 00:00:00
FILE "08.Ultra Nate - Free (Mood II Swing Radio Edit).flac" WAVE
  TRACK 08 AUDIO
    PERFORMER "Ultra Nate"
    TITLE "Free (Mood II Swing Radio Edit)"
    INDEX 01 00:00:00
FILE "09.Livin' Joy - Dreamer.flac" WAVE
  TRACK 09 AUDIO
    PERFORMER "Livin' Joy"
    TITLE "Dreamer"
    INDEX 01 00:00:00
FILE "10.Josh Wink - Higher State Of Conciousness (Tweekin Acid Funk Edit).flac" WAVE
  TRACK 10 AUDIO
    PERFORMER "Josh Wink"
    TITLE "Higher State Of Conciousness (Tweekin Acid Funk Edit)"
    INDEX 01 00:00:00
FILE "11.Powerhouse Feat. Duane Harden - What You Need (Full Intention Radio Edit).flac" WAVE
  TRACK 11 AUDIO
    PERFORMER "Powerhouse Feat. Duane Harden"
    TITLE "What You Need (Full Intention Radio Edit)"
    INDEX 01 00:00:00
FILE "12.Reel 2 Real - Go On Move.flac" WAVE
  TRACK 12 AUDIO
    PERFORMER "Reel 2 Real"
    TITLE "Go On Move"
    INDEX 01 00:00:00
FILE "13.Heller & Farley Project - Ultra Flava.flac" WAVE
  TRACK 13 AUDIO
    PERFORMER "Heller & Farley Project"
    TITLE "Ultra Flava"
    INDEX 01 00:00:00
FILE "14.CLS - Can You Feel It (In House Dub).flac" WAVE
  TRACK 14 AUDIO
    PERFORMER "CLS"
    TITLE "Can You Feel It? (In House Dub)"
    INDEX 01 00:00:00
FILE "15.Sunscreem - Love U More.flac" WAVE
  TRACK 15 AUDIO
    PERFORMER "Sunscreem"
    TITLE "Love U More"
    INDEX 01 00:00:00
FILE "16.Bob Marley Vs Funkstar De Luxe - Sun Is Shining.flac" WAVE
  TRACK 16 AUDIO
    PERFORMER "Bob Marley Vs Funkstar De Luxe"
    TITLE "Sun Is Shining"
    INDEX 01 00:00:00
FILE "17.Pizzaman - Trippin' On Sunshine.flac" WAVE
  TRACK 17 AUDIO
    PERFORMER "Pizzaman"
    TITLE "Trippin' On Sunshine"
    INDEX 01 00:00:00
FILE "18.Snap! - Mary Had A Little Boy.flac" WAVE
  TRACK 18 AUDIO
    PERFORMER "Snap!"
    TITLE "Mary Had A Little Boy"
    INDEX 01 00:00:00
FILE "19.Robin S - Luv 4 Luv.flac" WAVE
  TRACK 19 AUDIO
    PERFORMER "Robin S"
    TITLE "Luv 4 Luv"
    INDEX 01 00:00:00
FILE "20.808 State & MC Tunes - The Only Rhyme That Bites.flac" WAVE
  TRACK 20 AUDIO
    PERFORMER "808 State & MC Tunes"
    TITLE "The Only Rhyme That Bites"
    INDEX 01 00:00:00



pb.wtf



Скачать VA - Driven By - The 90s через торрент http://i109.fastpic.ru/big/2019/0423/f2/cda169fb04180d8644d61dd7c49d03f2.png Скачать фильм VA - Driven By - The 90s через торрент бесплантно в хорошем качестве ... 10 10 2
Торрент: Зарегистрирован [2019-04-23 13:29] · скачан: 45 раз
Статус: √ проверено
Размер: 2.51 GB
Как cкачать? Как скачать VA - Driven By - The 90s через торрент | qTorrent

28-11-2019 20:33  

Отключить всю рекламу на сайте


    Дорогой пользователь! Огромная просьба, поблагодарите релизера, оцените раздачу и оставьте свои комментарий, если Вы скачали VA - Driven By - The 90s через торрент бесплатно! Внесите свою лепту в развитие PiratBit!
    Комментировать посты могут только пользователи прошедшие не сложную регистрацию
    Показать сообщения:    

    VA - Driven By - The 90s через торрент
    Скачать бесплатно VA - Driven By - The 90s
    VA - Driven By - The 90s скачать торрент
    VA - Driven By - The 90s смотреть онлайн
    Cкачать фильм VA - Driven By - The 90s бесплатно
    VA - Driven By - The 90s скачать торрент в хорошем качестве
    VA - Driven By - The 90s смотреть онлайн бесплатно в хорошем качестве


    Вы не можете начинать темы
    Вы не можете отвечать на сообщения
    Вы не можете редактировать свои сообщения
    Вы не можете удалять свои сообщения
    Вы не можете голосовать в опросах
    Вы не можете прикреплять файлы к сообщениям
    Вы можете скачивать файлы