MEGA NEWS Получи личный уникальный адрес сайта и защити себя от блокировок. Внимание количество ограничено!!!

iTunes

1+1

iTunes

мы

iTunes

1

iTunes

Чернобыль

iTunes

Ральф против интернета

Лицензия

ПШазам

Лицензия

Игра престолов

Лицензия

30
pack

ВАЖНО

!!Акция!!

Alien_RageХит недели

RePack

Resident Evil 21

ИГРА 18+

pack

RePack

Metro:Exodus

!!Акция!!

Alien_Rage

RePack

fifa19

RePack

Assassins Creed: Odyssey

RePack

NEED FOR SPEED™ PAYBACK

3 сезон

9 сезон

Бесстыжие 9 сезон

Все сериалы

все сериалы на PB.wtf

RePack

FAR CRY 5
Ребята, катастрофически не хватает 1900р. для оплаты серверов за АВГУСТ (всвязи с блокировками трафик упал в 3 раза), 1-2р., выручайте.
  

Звездный путь 8: Первый контакт / Star Trek: First Contact (Джонатан Фрейкс) [1996, Фантастика, боевик, триллер, приключения, BDRip 1080p] 3xMVO+AVO pb.wtf

Звездный путь 8: Первый контакт через торрент pb.wtf

Раздают: 2 [ 0 KB/s ]
Размер: 10.93 GB | Добавлен: 5 мес. 25 д. назад | Торрент скачан:57 раз
Скачать  

23-04-2019 20:35 Звездный путь 8: Первый контакт Скачать торрент  

Звездный путь 8: Первый контакт / Star Trek: First Contact
Год выпуска: 1996
Страна: США
Жанр: Фантастика, боевик, триллер, приключения
Продолжительность: 01:50:44
Перевод: Профессиональный (многоголосый), Авторский
Субтитры: Русские, английские

Режиссер: Джонатан Фрейкс

rating

В ролях:

Патрик Стюарт, Джонатан Фрейкс, Брент Спайнер, ЛеВар Бёртон, Майкл Дорн, Гейтс МакФэдден, Марина Сиртис, Элфри Вудард, Джеймс Кромуэлл, Элис Крайдж, Майкл Хортон, Нил МакДонаф, Марни МакПайл, Роберт Пикардо, Дуайт Шульц, Адам Скотт, Джек Ширер, Эрик Стейнберг, Скотт Строзье, Патти Ясутаке

Описание:

Время действия: 2373 год (звездная дата: 50319.5). Восьмая часть всемирно известного сериала о приключениях бесстрашных звездолетчиков в далеком будущем. Посланцы враждебной инопланетной цивилизации проникают в прошлое, и первый контакт человечества с внеземным разумом, способный положить начало новой космической эры, оказывается под угрозой срыва. Перед экипажем легендарного космического корабля «Энтерпрайз» и его мужественным капитаном Пикардом стоит трудная и опасная задача — помешать осуществлению планов врага и спасти будущее Земли.

Качество: BDRip 1080p
Формат: MKV

Видео: MPEG-4 AVC, 11.3 Мбит/с, 1920x818, 23.976 кадр/с
Аудио#1: Русский ( АС3, 2ch, 192 Кбит/с, 48.0 KHz) Профессиональный (многоголосый, закадровый) SDI Media
Аудио#2: Русский ( АС3, 2ch, 192 Кбит/с, 48.0 KHz) Профессиональный (многоголосый, закадровый) Премьер Видео
Аудио#3: Русский ( АС3, 2ch, 192 Кбит/с, 48.0 KHz) Профессиональный (многоголосый, закадровый) Первый канал
Аудио#4: Русский ( АС3, 6ch, 448 Кбит/с, 48.0 KHz) Авторский (одноголосый, закадровый) Ю.Живов
Аудио#5: Английский ( DTS, 6ch, 1509 Кбит/с, 48.0 KHz)
скриншот  скриншот  скриншот  скриншот  скриншот  

скриншот  скриншот  скриншот  скриншот  скриншот  

Release for HDCLUB
General
Unique ID : 233183971202629481443969987104778995488 (0xAF6D9969B1EA9EB08E72B4EE4ABBC720)
Complete name : Star.Trek.First.Contact.1996.1080p.BluRay.4xRus.Eng.HDCLUB-SbR.mkv
Format : Matroska
Format version : Version 4 / Version 2
File size : 10.9 GiB
Duration : 1 h 50 min
Overall bit rate : 14.1 Mb/s
Movie name : Star Trek: First Contact (1996) - Release for HDCLUB by SbR
Encoded date : UTC 2013-12-29 04:59:37
Writing application : mkvmerge v6.6.0 ('The Edge Of The In Between') built on Dec 1 2013 17:55:00
Writing library : libebml v1.3.0 + libmatroska v1.4.1
Cover : Yes
Attachments : cover.jpg / xlog.txt

Video
ID : 1
Format : AVC
Format/Info : Advanced Video Codec
Format profile : High@L4.1
Format settings, CABAC : Yes
Format settings, RefFrames : 5 frames
Codec ID : V_MPEG4/ISO/AVC
Duration : 1 h 50 min
Bit rate : 11.3 Mb/s
Width : 1 920 pixels
Height : 818 pixels
Display aspect ratio : 2.35:1
Frame rate mode : Constant
Frame rate : 23.976 (24000/1001) FPS
Color space : YUV
Chroma subsampling : 4:2:0
Bit depth : 8 bits
Scan type : Progressive
Bits/(Pixel*Frame) : 0.300
Stream size : 8.75 GiB (80%)
Title : Release for HDCLUB
Writing library : x264 core 140 r2377+40 929f149 tMod [8-bit@4:2:0 X86_64]
Encoding settings : cabac=1 / ref=5 / deblock=1:-2:-2 / analyse=0x3:0x113 / me=umh / subme=11 / psy=1 / fade_compensate=0.00 / psy_rd=1.00:0.00 / mixed_ref=1 / me_range=48 / chroma_me=1 / trellis=2 / 8x8dct=1 / cqm=0 / deadzone=21,11 / fast_pskip=1 / chroma_qp_offset=-2 / threads=12 / lookahead_threads=2 / sliced_threads=0 / nr=0 / decimate=1 / interlaced=0 / bluray_compat=0 / constrained_intra=0 / fgo=0 / bframes=8 / b_pyramid=2 / b_adapt=2 / b_bias=0 / direct=3 / weightb=1 / open_gop=0 / weightp=2 / keyint=250 / keyint_min=23 / scenecut=40 / intra_refresh=0 / rc_lookahead=60 / rc=crf / mbtree=0 / crf=17.5000 / qcomp=0.70 / qpmin=0:0:0 / qpmax=69:69:69 / qpstep=4 / vbv_maxrate=62500 / vbv_bufsize=78125 / crf_max=0.0 / nal_hrd=none / filler=0 / ip_ratio=1.40 / pb_ratio=1.30 / aq=4:0.80 / aq-sensitivity=11.00 / aq-factor=1.00:1.00:1.00 / aq2=1:0.60 / aq2-sensitivity=9.00 / aq2-factor=1.00:1.00:1.00 / aq3=1:[0.60:0.60]:[0.60:0.60]:[0.60:0.60]:[0.60:0.60] / aq3-sensitivity=10.00 / aq3-factor=[1.00:1.00]:[1.00:1.00]:[1.00:1.00] / aq3-boundary=192:64:24
Language : English
Default : Yes
Forced : No
Color range : Limited
Color primaries : BT.709
Transfer characteristics : BT.709
Matrix coefficients : BT.709

Audio #1
ID : 2
Format : AC-3
Format/Info : Audio Coding 3
Mode : Dolby Digital
Format settings, Endianness : Big
Codec ID : A_AC3
Duration : 1 h 50 min
Bit rate mode : Constant
Bit rate : 192 kb/s
Channel(s) : 2 channels
Channel positions : Front: L R
Sampling rate : 48.0 kHz
Frame rate : 31.250 FPS (1536 SPF)
Bit depth : 16 bits
Compression mode : Lossy
Stream size : 152 MiB (1%)
Title : MVO, SDI Media
Language : Russian
Service kind : Complete Main
Default : Yes
Forced : No

Audio #2
ID : 3
Format : AC-3
Format/Info : Audio Coding 3
Mode : Dolby Digital
Format settings, Endianness : Big
Codec ID : A_AC3
Duration : 1 h 50 min
Bit rate mode : Constant
Bit rate : 192 kb/s
Channel(s) : 2 channels
Channel positions : Front: L R
Sampling rate : 48.0 kHz
Frame rate : 31.250 FPS (1536 SPF)
Bit depth : 16 bits
Compression mode : Lossy
Stream size : 152 MiB (1%)
Title : MVO, Премьер Видео
Language : Russian
Service kind : Complete Main
Default : No
Forced : No

Audio #3
ID : 4
Format : AC-3
Format/Info : Audio Coding 3
Mode : Dolby Digital
Format settings, Endianness : Big
Codec ID : A_AC3
Duration : 1 h 50 min
Bit rate mode : Constant
Bit rate : 192 kb/s
Channel(s) : 2 channels
Channel positions : Front: L R
Sampling rate : 48.0 kHz
Frame rate : 31.250 FPS (1536 SPF)
Bit depth : 16 bits
Compression mode : Lossy
Stream size : 152 MiB (1%)
Title : MVO, Первый Канал
Language : Russian
Service kind : Complete Main
Default : No
Forced : No

Audio #4
ID : 5
Format : AC-3
Format/Info : Audio Coding 3
Format settings, Endianness : Big
Codec ID : A_AC3
Duration : 1 h 50 min
Bit rate mode : Constant
Bit rate : 448 kb/s
Channel(s) : 6 channels
Channel positions : Front: L C R, Side: L R, LFE
Sampling rate : 48.0 kHz
Frame rate : 31.250 FPS (1536 SPF)
Bit depth : 16 bits
Compression mode : Lossy
Stream size : 355 MiB (3%)
Title : VO, Ю.Живов
Language : Russian
Service kind : Complete Main
Default : No
Forced : No

Audio #5
ID : 6
Format : DTS
Format/Info : Digital Theater Systems
Mode : 16
Format settings, Endianness : Big
Codec ID : A_DTS
Duration : 1 h 50 min
Bit rate mode : Constant
Bit rate : 1 509 kb/s
Channel(s) : 6 channels
Channel positions : Front: L C R, Side: L R, LFE
Sampling rate : 48.0 kHz
Frame rate : 93.750 FPS (512 SPF)
Bit depth : 24 bits
Compression mode : Lossy
Stream size : 1.17 GiB (11%)
Language : English
Default : No
Forced : No

Text #1
ID : 7
Format : UTF-8
Codec ID : S_TEXT/UTF8
Codec ID/Info : UTF-8 Plain Text
Language : Russian
Default : No
Forced : No

Text #2
ID : 8
Format : UTF-8
Codec ID : S_TEXT/UTF8
Codec ID/Info : UTF-8 Plain Text
Language : English
Default : No
Forced : No

Menu
00:00:00.000 : en:Main Titles
00:02:48.668 : en:Locutus
00:04:45.243 : en:The Neutral Zone
00:07:30.782 : en:Engaging the Borg
00:11:52.627 : en:Temporal Vortex
00:13:54.916 : en:Earth, 2063
00:17:21.957 : en:The Phoenix
00:22:25.635 : en:Environmental Difficulties
00:24:24.838 : en:39.1 Degrees Celsius
00:25:52.884 : en:Medical Emergency
00:27:08.752 : en:A Plan of Attack
00:28:10.063 : en:Blending In
00:31:14.289 : en:Deck Sixteen
00:37:50.935 : en:An Imperfect Being
00:39:16.353 : en:Viewing the Future
00:43:52.170 : en:Lily
00:46:13.603 : en:The Borg Queen
00:49:17.579 : en:Holodeck
00:55:11.850 : en:Hero Worship
00:58:20.121 : en:Zero-G
01:01:31.729 : en:Tempted By Flesh
01:05:16.287 : en:The Interplexing Beacon
01:13:52.261 : en:Cochran's Vision
01:16:24.079 : en:Captain Ahab
01:23:20.704 : en:Autodestruct Sequence
01:25:36.548 : en:The Voyage of the Phoenix
01:28:45.153 : en:"Welcome Home Locutus."
01:33:33.774 : en:Breaking the Warp Barrier
01:37:31.637 : en:0.68 Seconds
01:39:59.827 : en:First Contact - April 5, 2063
01:45:34.911 : en:End Credits

pb.wtf



Скачать Звездный путь 8: Первый контакт через торрент http://ecx.images-amazon.com/images/I/51BQj725nPL.jpg Скачать фильм Звездный путь 8: Первый контакт через торрент бесплантно в хорошем качестве Описание: Время действия: 2373 год (звездная дата: 50319.5). Восьмая часть всемирно известного сериала о приключениях бесстрашных ... 10 10 6
Info! Золотая раздача, скачанное не засчитывается.
Торрент: Зарегистрирован [2019-04-23 20:35] · скачан: 57 раз
Статус: √ проверено
Размер: 10.93 GB
Как cкачать? Как скачать Звездный путь 8: Первый контакт через торрент | qTorrent


>> Регистрируемся здесь <<






Отзывы и комментарии о схеме читаем и пишем здесь: ---> Отзывы и комментарии о схеме

Новые благодарочки в телеграм довольных пользователей:
скриншот   скриншот   скриншот   скриншот   скриншот
    Дорогой пользователь! Огромная просьба, поблагодарите релизера, оцените раздачу и оставьте свои комментарий, если Вы скачали Звездный путь 8: Первый контакт через торрент бесплатно! Внесите свою лепту в развитие PiratBit!
    Комментировать посты могут только пользователи прошедшие не сложную регистрацию
    Показать сообщения:    

    Звездный путь 8: Первый контакт через торрент
    Скачать бесплатно Звездный путь 8: Первый контакт
    Звездный путь 8: Первый контакт скачать торрент
    Звездный путь 8: Первый контакт смотреть онлайн
    Cкачать фильм Звездный путь 8: Первый контакт бесплатно
    Звездный путь 8: Первый контакт скачать торрент в хорошем качестве
    Звездный путь 8: Первый контакт смотреть онлайн бесплатно в хорошем качестве


    Вы не можете начинать темы
    Вы не можете отвечать на сообщения
    Вы не можете редактировать свои сообщения
    Вы не можете удалять свои сообщения
    Вы не можете голосовать в опросах
    Вы не можете прикреплять файлы к сообщениям
    Вы можете скачивать файлы