Ссылка на приватное зеркало нашего сайта всего за 1$. Внимание количество ограничено!!!

2 сезон

iTunes

1 сезон

1

2 сезон

2 сезон

iTunes

1 сезон

RePack

30

Ultimate

ВАЖНО

ИГРА 18+

pack

RePack

MK11
pack

Забери бонус

RePack

jed

!!Акция!!

Alien_Rage

RePack

fifa19

RePack

Assassins Creed: Odyssey

RePack

NEED FOR SPEED™ PAYBACK

4 сезон

9 сезон

Бесстыжие 9 сезон

Все сериалы

все сериалы на PB.wtf

RePack

FAR CRY 5
  

Фосси/Вердон / Fosse/Verdon / Сезон: 1 / Серии: 1-8 из 8 (Томас Каил, Адам Бернштейн, Минки Спиро) [2019, драма, биография, музыка, WEB-DL 1080p] [MVO] (TVShows) pb.wtf

Фосси через торрент pb.wtf

Размер: 28.37 GB | Добавлен: 1 год 5 мес. назад | Торрент скачан:2 раза
Скачать  

24-04-2019 11:48 Фосси Скачать торрент  

Фосси/Вердон / Fosse/Verdon

Год выпуска: 2019
Страна: США
Жанр: драма, биография, музыка
Продолжительность: ~ 00:55:00
Перевод: Профессиональный (многоголосый закадровый) (TVShows)
Субтитры: нет

Режиссёр: Томас Каил / Thomas Kail, Адам Бернштейн / Adam Bernstein, Минки Спиро / Minkie Spiro

В ролях:
Пол Райзер, Бьянка Маррокин, Ричард Холмс, Келли Баррет, Нэйт Корддри, Эван Хэндлер, Норберт Лео Батц, Ая Кэш, Сэм Рокуэлл, Мишель Уильямс

Описание:
Легендарный хореограф Боб Фосси и танцовщица Гвен Вердон вместе создали десятки великих постановок и изменили Бродвей. Тем временем за кулисами кипели страсти, полные ненависти, любви и измен.



Качество: WEB-DL 1080p
Формат: MKV
Видео: AVC, 1920x1080 (16:9), 23.976 fps, ~ 8326 Kbps
Аудио №1: AC3, 48,0 kHz, 6 ch, 384 kbps | TVShows
Аудио №2: E-AC3, 48,0 kHz, 6 ch, 640 kbps | Original
Субтитры: английские

General
Unique ID : 220487906541748183214008194104406285479 (0xA5E06D18B789FAE36FA1B6F3E05B9CA7)
Complete name : E:\Fosse.Verdon.S01.1080p.TVShows\Fosse.Verdon.S01E01.1080p.TVShows.mkv
Format : Matroska
Format version : Version 4 / Version 2
File size : 3.35 GiB
Duration : 51 min 13 s
Overall bit rate : 9 353 kb/s
Encoded date : UTC 2019-04-14 14:55:51
Writing application : mkvmerge v31.0.0 ('Dolores In A Shoestand') 64-bit
Writing library : libebml v1.3.6 + libmatroska v1.4.9

Video
ID : 1
Format : AVC
Format/Info : Advanced Video Codec
Format profile : High@L4
Format settings : CABAC / 4 Ref Frames
Format settings, CABAC : Yes
Format settings, ReFrames : 4 frames
Codec ID : V_MPEG4/ISO/AVC
Duration : 51 min 13 s
Bit rate mode : Constant
Bit rate : 8 326 kb/s
Nominal bit rate : 10 000 kb/s
Width : 1 920 pixels
Height : 1 080 pixels
Display aspect ratio : 16:9
Frame rate mode : Constant
Frame rate : 23.976 (24000/1001) FPS
Color space : YUV
Chroma subsampling : 4:2:0
Bit depth : 8 bits
Scan type : Progressive
Bits/(Pixel*Frame) : 0.167
Stream size : 2.98 GiB (89%)
Language : English
Default : Yes
Forced : No
Color range : Limited
Color primaries : BT.709
Transfer characteristics : BT.709
Matrix coefficients : BT.709

Audio #1
ID : 2
Format : AC-3
Format/Info : Audio Coding 3
Codec ID : A_AC3
Duration : 51 min 13 s
Bit rate mode : Constant
Bit rate : 384 kb/s
Channel(s) : 6 channels
Channel positions : Front: L C R, Side: L R, LFE
Sampling rate : 48.0 kHz
Frame rate : 31.250 FPS (1536 SPF)
Bit depth : 16 bits
Compression mode : Lossy
Stream size : 141 MiB (4%)
Title : TVShows
Language : Russian
Service kind : Complete Main
Default : Yes
Forced : Yes

Audio #2
ID : 3
Format : E-AC-3
Format/Info : Enhanced Audio Coding 3
Codec ID : A_EAC3
Duration : 51 min 13 s
Bit rate mode : Constant
Bit rate : 640 kb/s
Channel(s) : 6 channels
Channel positions : Front: L C R, Side: L R, LFE
Sampling rate : 48.0 kHz
Frame rate : 187.500 FPS (256 SPF)
Compression mode : Lossy
Delay relative to video : 30 ms
Stream size : 234 MiB (7%)
Title : Original
Language : English
Service kind : Complete Main
Default : No
Forced : No

Text
ID : 4
Format : UTF-8
Codec ID : S_TEXT/UTF8
Codec ID/Info : UTF-8 Plain Text
Duration : 49 min 23 s
Bit rate : 82 b/s
Count of elements : 1073
Stream size : 29.9 KiB (0%)
Title : English
Language : English
Default : No
Forced : No
скриншот  скриншот  скриншот  
Внимание! Раздача ведётся путём добавления новых серий; при каждом добавлении создётся новый торрент. Чтобы начать докачку новой серии, пользователям необходимо сделать следующее: (1) остановить скачивание, (2) удалить старый торрент у себя из клиента (старые серии удалять не надо), (3) скачать новый торрент и запустить его у себя в клиенте вместо старого, при этом указать клиенту путь в старую папку куда и должно происходить скачивание новых серий.

Ваш клиент при этом должен произвести хеширование (проверку) старой папки (если не производит сам - помогите ему сделать это), и будет докачивать только те серии которых у вас ещё нет. Старые серии при этом не удаляются, а продолжают раздаваться!

Eсли вы уже удалили старые серии, то предотвратить повторную закачку старых серий можно, отжав галочку в соответсвующих местах при запуске нового торрента.
:arrow: Как закачать отдельный файл из торрента или докачать ранее пропущенные файлы торрента!
pb.wtf



Скачать Фосси через торрент https://i110.fastpic.ru/big/2019/0416/4e/6e2dec35e0f719d6f37b2893e20bb64e.jpg Скачать фильм Фоссичерез торрент бесплантно в хорошем качестве Описание:Легендарный хореограф Боб Фосси и танцовщица Гвен Вердон вместе создали десятки великих постановок и изменили Бродвей. Тем ... 5.5 10 2
Торрент: Зарегистрирован [2019-06-08 10:48] · скачан: 2 раз
Статус: √ проверено
Размер: 28.37 GB
Как cкачать? Как скачать Фосси через торрент | qTorrent

% Раздел Тема Автор DL S | L
Зарубежные сериалы [ 6.45 GB ] Фосси/Вердон / Fosse/Verdon / Сезон: 1 / Серии: 1-8 из 8 [2019 биография музыка WEB-DLRip] [MVO] killermax2013 Скачать
1 | 0

28-11-2019 20:33  

Отключить всю рекламу на сайте

    Дорогой пользователь! Огромная просьба, поблагодарите релизера, оцените раздачу и оставьте свои комментарий, если Вы скачали Фосси через торрент бесплатно! Внесите свою лепту в развитие PiratBit!
    Комментировать посты могут только пользователи прошедшие не сложную регистрацию
    Показать сообщения:    

    Фосси через торрент
    Скачать бесплатно Фосси
    Фосси скачать торрент
    Фосси смотреть онлайн
    Cкачать фильм Фосси бесплатно
    Фосси скачать торрент в хорошем качестве
    Фосси смотреть онлайн бесплатно в хорошем качестве


    Вы не можете начинать темы
    Вы не можете отвечать на сообщения
    Вы не можете редактировать свои сообщения
    Вы не можете удалять свои сообщения
    Вы не можете голосовать в опросах
    Вы не можете прикреплять файлы к сообщениям
    Вы можете скачивать файлы