Ссылка на приватное зеркало нашего сайта всего за 1$. Внимание количество ограничено!!!

2 сезон

iTunes

iTunes

1

iTunes

iTunes

iTunes

WEBRip

iTunes

30
pack

Новость дня

ВАЖНО

!!Акция!!

Alien_RageХит недели

RePack

Horizon Zero Dawn

ИГРА 18+

pack

RePack

jed

!!Акция!!

Alien_Rage

RePack

fifa19

RePack

Assassins Creed: Odyssey

RePack

NEED FOR SPEED™ PAYBACK

4 сезон

9 сезон

Бесстыжие 9 сезон

Все сериалы

все сериалы на PB.wtf

RePack

FAR CRY 5
  

Уайтфолкс: история великого мошенника / Whitefolks (Гидеон Сара) [2017, криминал, WEB-DL 720p] MVO ["Синема УС"] pb.wtf

Уайтфолкс: история великого мошенника через торрент pb.wtf

Размер: 4.02 GB | Добавлен: 1 год 4 мес. назад | Торрент скачан:25 раз
Скачать  

24-04-2019 13:41 Уайтфолкс: история великого мошенника Скачать торрент  

Уайтфолкс: история великого мошенника / Whitefolks Год выпуска: 2017
Страна: США
Жанр: криминал
Продолжительность: 01:42:11
Перевод: Любительский (многоголосый) | "Синема УС"
Субтитры: отсутствуют

Режиссер: Гидеон Сара

rating

В ролях: Бобби Уортон, Кеннет Гвинн, Черри Гарден, Карл Браун, Виктор Ривера, Кашира Монро, Джексон Роуз, Джейми «Безупречный» Меркисон, Шон Кэмп, Эндрю Р. Каплан

Описание: Пара мошенников из южной части Чикаго, пытаясь провести русскую мафию, столкнулись с ультиматумом: заплатить бандитам два миллиона долларов за две недели или умереть.

Качество: WEB-DL 720p
Формат: MKV

Видео: h.264, 5 249 Кбит/с, 1280x720
Аудио: Русский, (AC3, 2 ch, 384 Кбит/с)
скриншот  скриншот  скриншот  

Общее
Уникальный идентификатор : 184674488506290969979968005019159050461 (0x8AEF0342C9EED558B4DFA6616CD138DD)
Полное имя : D:\Whitefolks.2017.P.WEB-DL.72Op.mkv
Формат : Matroska
Версия формата : Version 2
Размер файла : 4,02 Гбайт
Продолжительность : 1 ч. 42 м.
Режим общего битрейта : Переменный
Общий поток : 5635 Кбит/сек
Дата кодирования : UTC 2019-04-23 06:28:21
Программа кодирования : mkvmerge v8.3.0 ('Over the Horizon') 64bit
Библиотека кодирования : libebml v1.3.1 + libmatroska v1.4.2

Видео
Идентификатор : 1
Формат : AVC
Формат/Информация : Advanced Video Codec
Профиль формата : High@L4.1
Параметр CABAC формата : Да
Параметр RefFrames формата : 4 кадра
Идентификатор кодека : V_MPEG4/ISO/AVC
Продолжительность : 1 ч. 42 м.
Вид битрейта : Переменный
Битрейт : 5249 Кбит/сек
Максимальный битрейт : 6000 Кбит/сек
Ширина : 1280 пикселей
Высота : 720 пикселей
Соотношение сторон : 16:9
Режим частоты кадров : Постоянный
Частота кадров : 23,976 (24000/1001) кадра/сек
Стандарт вещания : Component
Цветовое пространство : YUV
Субдискретизация насыщенности : 4:2:0
Битовая глубина : 8 бит
Тип развёртки : Прогрессивная
Бит/(Пиксели*Кадры) : 0.233
Размер потока : 3,67 Гбайт (91%)
Default : Да
Forced : Нет
Цветовой диапазон : Limited
Основные цвета : BT.709
Характеристики трансфера : BT.709
Коэффициенты матрицы : BT.709

Аудио
Идентификатор : 2
Формат : AC-3
Формат/Информация : Audio Coding 3
Расширение режима : CM (complete main)
Параметр Endianness формата : Big
Идентификатор кодека : A_AC3
Продолжительность : 1 ч. 42 м.
Вид битрейта : Постоянный
Битрейт : 384 Кбит/сек
Каналы : 2 канала
Расположение каналов : Front: L R
Частота : 48,0 КГц
Частота кадров : 31,250 кадров/сек (1536 spf)
Метод сжатия : С потерями
Размер потока : 281 Мбайт (7%)
Default : Да
Forced : Нет

pb.wtf



Скачать Уайтфолкс: история великого мошенника через торрент https://d.radikal.ru/d31/1904/6a/640e7c4add1c.jpg Скачать фильм Уайтфолкс: история великого мошенника через торрент бесплантно в хорошем качестве Описание: Пара мошенников из южной части Чикаго, пытаясь провести русскую мафию, столкнулись с ультиматумом: заплатить бандитам два ... 10 10 3
Торрент: Зарегистрирован [2019-04-24 13:41] · скачан: 25 раз
Статус: T временная
Размер: 4.02 GB
Как cкачать? Как скачать Уайтфолкс: история великого мошенника через торрент | qTorrent

% Раздел Тема Автор DL S | L
T Фильмы (мультфильмы) cо спонсором показа (Новинки AVI/MKV) [ 1.37 GB ] Уайтфолкс: история великого мошенника / Whitefolks [2017 WEB-DLRip] MVO ["Синема УС"] bober100 Скачать
1 | 0

28-11-2019 20:33  

Отключить всю рекламу на сайте

    Дорогой пользователь! Огромная просьба, поблагодарите релизера, оцените раздачу и оставьте свои комментарий, если Вы скачали Уайтфолкс: история великого мошенника через торрент бесплатно! Внесите свою лепту в развитие PiratBit!
    Комментировать посты могут только пользователи прошедшие не сложную регистрацию
    Показать сообщения:    

    Уайтфолкс: история великого мошенника через торрент
    Скачать бесплатно Уайтфолкс: история великого мошенника
    Уайтфолкс: история великого мошенника скачать торрент
    Уайтфолкс: история великого мошенника смотреть онлайн
    Cкачать фильм Уайтфолкс: история великого мошенника бесплатно
    Уайтфолкс: история великого мошенника скачать торрент в хорошем качестве
    Уайтфолкс: история великого мошенника смотреть онлайн бесплатно в хорошем качестве


    Вы не можете начинать темы
    Вы не можете отвечать на сообщения
    Вы не можете редактировать свои сообщения
    Вы не можете удалять свои сообщения
    Вы не можете голосовать в опросах
    Вы не можете прикреплять файлы к сообщениям
    Вы можете скачивать файлы