Ссылка на приватное зеркало всего за 1$. Внимание количество ограничено!!!

OK

1+1

iTunes

мы

OK

1

WEB-DLRip

Джокер

Пифагор

Ведьмак / The Witcher сериал

Лицензия

ПШазам

ОК

Оно 2

iTunes

30
pack

Вам бонус

ВАЖНО

!!Акция!!

Alien_RageХит недели

RePack

Resident Evil 21

ИГРА 18+

pack

RePack

jed

RePack

fifa19

RePack

Assassins Creed: Odyssey

RePack

NEED FOR SPEED™ PAYBACK

4 сезон

9 сезон

Бесстыжие 9 сезон

Все сериалы

все сериалы на PB.wtf

RePack

FAR CRY 5
  

Родная душа / Qi yue yu an sheng (Дерек Цан) [2016, драма, мелодрама, BDRip 720p] MVO ["Синема УС"] pb.wtf

Родная душа через торрент pb.wtf

Размер: 3.11 GB | Добавлен: 8 мес. назад | Торрент скачан:4 раза
Скачать  

24-04-2019 14:14 Родная душа Скачать торрент  

Родная душа / Qi yue yu an shengГод выпуска: 2016
Страна: Китай, Гонконг
Жанр: драма, мелодрама
Продолжительность: 01:50:39
Перевод: Любительский (многоголосый) | "Синема УС"
Субтитры: отсутствуют

Режиссер: Дерек Цан

rating

В ролях: Чжоу Дунъюй, Сандра Ма, Тоби Ли, Ли Пин, Цай Ган, Мэн Тинъи, Синди Яо, Ли Хаофан, Лу Чжун, Освальдо Энелле Лики

Описание: Циюэ и Аньшэн познакомились ещё в школе, когда обеим было по 13 лет, и сразу стали неразлучны. Матери сумасбродной Аньшэнь почти никогда не было дома, поэтому семья отличницы Циюэ не возражала, что девочка практически жила у них дома. В старших классах Циюэ стал нравиться одноклассник, но сам парень явно испытывал симпатию к её подруге, поэтому после окончания школы Аньшэн уехала в Пекин. Дороги лучших подруг разошлись, и девушки стали жить совершенно разными жизнями, но их судьбы всё равно окажутся тесно связанными на протяжении многих лет.

Качество: BDRip 720p
Формат: MKV

Видео: h.264,3 495 Кбит/с, 1280x544
Аудио#1: Русский (AC3, 2 ch, 448 Кбит/с)
скриншот  скриншот  скриншот  

Общее
Уникальный идентификатор : 176254805176449351428173554503553440346 (0x849970D293A5ED76BC32B4BCFF08DA5A)
Полное имя : D:\Soulmate.2016.P.BDRip.72Op.mkv
Формат : Matroska
Версия формата : Version 2
Размер файла : 3,11 Гбайт
Продолжительность : 1 ч. 50 м.
Режим общего битрейта : Переменный
Общий поток : 4023 Кбит/сек
Дата кодирования : UTC 2019-04-23 07:47:45
Программа кодирования : mkvmerge v8.3.0 ('Over the Horizon') 64bit
Библиотека кодирования : libebml v1.3.1 + libmatroska v1.4.2
IsTruncated : Yes

Видео
Идентификатор : 1
Формат : AVC
Формат/Информация : Advanced Video Codec
Профиль формата : High@L4.1
Параметр CABAC формата : Да
Параметр RefFrames формата : 4 кадра
Идентификатор кодека : V_MPEG4/ISO/AVC
Продолжительность : 1 ч. 50 м.
Вид битрейта : Переменный
Битрейт : 3495 Кбит/сек
Максимальный битрейт : 7500 Кбит/сек
Ширина : 1280 пикселей
Высота : 544 пикселя
Соотношение сторон : 2,35:1
Режим частоты кадров : Постоянный
Частота кадров : 23,976 (24000/1001) кадра/сек
Стандарт вещания : Component
Цветовое пространство : YUV
Субдискретизация насыщенности : 4:2:0
Битовая глубина : 8 бит
Тип развёртки : Прогрессивная
Бит/(Пиксели*Кадры) : 0.209
Размер потока : 2,70 Гбайт (87%)
Default : Да
Forced : Нет
Цветовой диапазон : Limited
Основные цвета : BT.709
Характеристики трансфера : BT.709
Коэффициенты матрицы : BT.709

Аудио
Идентификатор : 2
Формат : AC-3
Формат/Информация : Audio Coding 3
Расширение режима : CM (complete main)
Параметр Endianness формата : Big
Идентификатор кодека : A_AC3
Продолжительность : 1 ч. 50 м.
Вид битрейта : Постоянный
Битрейт : 448 Кбит/сек
Каналы : 2 канала
Расположение каналов : Front: L R
Частота : 48,0 КГц
Частота кадров : 31,250 кадров/сек (1536 spf)
Метод сжатия : С потерями
Размер потока : 355 Мбайт (11%)
Default : Да
Forced : Нет

pb.wtf



Скачать Родная душа через торрент https://d.radikal.ru/d14/1904/08/437378b09de3.jpg Скачать фильм Родная душа через торрент бесплантно в хорошем качестве Описание: Циюэ и Аньшэн познакомились ещё в школе, когда обеим было по 13 лет, и сразу стали неразлучны. Матери сумасбродной Аньшэнь почти ... 10 10 2
Торрент: Зарегистрирован [2019-04-24 14:14] · скачан: 4 раз
Статус: # сомнительно
Размер: 3.11 GB
Как cкачать? Как скачать Родная душа через торрент | qTorrent

% Раздел Тема Автор DL S | L
T Фильмы (мультфильмы) cо спонсором показа (Новинки AVI/MKV) [ 1.37 GB ] Родная душа / Qi yue yu an sheng [2016 HDRip] MVO ["Синема УС"] bober100 Скачать
1 | 0

28-11-2019 20:33  

Отключить всю рекламу на сайте

    Дорогой пользователь! Огромная просьба, поблагодарите релизера, оцените раздачу и оставьте свои комментарий, если Вы скачали Родная душа через торрент бесплатно! Внесите свою лепту в развитие PiratBit!
    Комментировать посты могут только пользователи прошедшие не сложную регистрацию
    Показать сообщения:    

    Родная душа через торрент
    Скачать бесплатно Родная душа
    Родная душа скачать торрент
    Родная душа смотреть онлайн
    Cкачать фильм Родная душа бесплатно
    Родная душа скачать торрент в хорошем качестве
    Родная душа смотреть онлайн бесплатно в хорошем качестве


    Вы не можете начинать темы
    Вы не можете отвечать на сообщения
    Вы не можете редактировать свои сообщения
    Вы не можете удалять свои сообщения
    Вы не можете голосовать в опросах
    Вы не можете прикреплять файлы к сообщениям
    Вы можете скачивать файлы