Ссылка на приватное зеркало нашего сайта всего за 1$. Внимание количество ограничено!!!

2 сезон

iTunes

1 сезон

1

2 сезон

2 сезон

iTunes

1 сезон

RePack

30

Ultimate

ВАЖНО

ИГРА 18+

pack

RePack

MK11
pack

Забери бонус

RePack

jed

!!Акция!!

Alien_Rage

RePack

fifa19

RePack

Assassins Creed: Odyssey

RePack

NEED FOR SPEED™ PAYBACK

4 сезон

9 сезон

Бесстыжие 9 сезон

Все сериалы

все сериалы на PB.wtf

RePack

FAR CRY 5
  

Кобра-Кай / Cobra Kai / Сезон: 2 / Серии: 1-10 из 10 (Джон Харвитц) [2019, боевик, драма, комедия, семейный, WEB-DLRip] [MVO] (ColdFilm) pb.wtf

Кобра-Кай через торрент pb.wtf

Размер: 3.5 GB | Добавлен: 1 год 7 мес. назад | Торрент скачан:82 раза
Скачать  

24-04-2019 15:12 Кобра-Кай Скачать торрент  

Кобра Кай/ Cobra Kai Год выпуска: 2019
Страна: США
Жанр: боевик, драма, комедия, семейный
Продолжительность: 1х ~00:27:00
Озвучание: Любительское (многоголосое закадровое) ColdFilm
скриншот  

Режиссеры: Джон Харвитц, Хейден Шлоссберг, Дженнифер Челотта

В ролях: Ральф Маччио, Уильям Забка, Кортни Хенгелер, Холо Маридуэньо, Тэннер Бьюкэнэн, Мэри Мэтилин Маусер, Джейкоб Бертран, Nichole Brown, Griffin Santopietro, Джанни Десенцо и др.

Описание: В прошлом хулиган, а ныне разорившийся неудачник, Джонни Лоуренс считает, что единственный его шанс вернуться к нормальной жизни — заново открыть печально известную школу карате «Кобра Кай». Попытка наладить свои дела сводит Джонни с Дэниелом ЛаРуссо — успешным мужчиной, который изо всех сил старается сохранять жизненную гармонию, которой когда-то учил его мистер Мияги. Встретившись вновь, Дэнни и Джонни пытаются избавиться от демонов прошлого и проблем настоящего единственным известным им способом — с помощью карате.

rating

Качество: WEB-DLRip
Формат: AVI
Видео: 720x400 (16:9), 23.976 fps, XviD ~1500 kbps avg
Аудио: 48 kHz, MPEG Layer 3, 2 ch, ~128.00 kbps avg
Субтитры: нет
скриншот  скриншот  скриншот  
General
Complete name : E:\Cobra.Kai.S02.400p.ColdFilm\Cobra.Kai.S02E01.400p.ColdFilm.avi
Format : AVI
Format/Info : Audio Video Interleave
File size : 417 MiB
Duration : 36 min 37 s
Overall bit rate : 1 592 kb/s
Writing application : Lavf58.12.100

Video
ID : 0
Format : xvid
Codec ID : xvid
Duration : 36 min 37 s
Bit rate : 1 451 kb/s
Width : 720 pixels
Height : 400 pixels
Display aspect ratio : 16:9
Frame rate : 23.976 (24000/1001) FPS
Scan type : Progressive
Bits/(Pixel*Frame) : 0.210
Stream size : 380 MiB (91%)

Audio
ID : 1
Format : MPEG Audio
Format version : Version 1
Format profile : Layer 3
Format settings : Joint stereo / MS Stereo
Mode : Joint stereo
Mode extension : MS Stereo
Codec ID : 55
Codec ID/Hint : MP3
Duration : 36 min 37 s
Bit rate mode : Constant
Bit rate : 128 kb/s
Channel(s) : 2 channels
Sampling rate : 48.0 kHz
Compression mode : Lossy
Stream size : 33.5 MiB (8%)
Alignment : Aligned on interleaves
Interleave, duration : 24 ms (0.58 video frame)
Interleave, preload duratio : 24 ms
pb.wtf



Скачать Кобра-Кай через торрент http://i104.fastpic.ru/big/2018/0523/2c/00b08c1d8fdfd0515fbf1a737dd9e72c.jpg Скачать фильм Кобра-Кай через торрент бесплантно в хорошем качестве Описание: В прошлом хулиган, а ныне разорившийся неудачник, Джонни Лоуренс считает, что единственный его шанс вернуться к нормальной жизни ... 10 10 2
Торрент: Зарегистрирован [2019-04-24 15:12] · скачан: 82 раз
Статус: √ проверено
Размер: 3.5 GB
Как cкачать? Как скачать Кобра-Кай через торрент | qTorrent

% Раздел Тема Автор DL S | L
Зарубежные сериалы [ 2.06 GB ] Кобра Кай / Cobra Kai / Сезон: 2 / Серии: 1- из 10 [2019 WEB-DL 1080p] MVO [VSI Moscow] bober100 Скачать
1 | 0
Зарубежные сериалы [ 27.86 GB ] Кобра-Кай / Cobra Kai / Сезон: 2 / Серии: 1-10 из 10 [2019 WEB-DL 2160p] [MVO] killermax2013 Скачать
1 | 0
Зарубежные сериалы [ 13.7 GB ] Кобра-Кай / Cobra Kai / Сезон: 2 / Серии: 1-10 из 10 [2019 WEB-DL 1080p] [MVO] killermax2013 Скачать
2 | 0
Зарубежные сериалы [ 2.91 GB ] Кобра-Кай / Cobra Kai / Сезон: 2 / Серии: 1-10 из 10 [2019 WEBRip] [DVO] killermax2013 Скачать
1 | 0

28-11-2019 20:33  

Отключить всю рекламу на сайте

    Дорогой пользователь! Огромная просьба, поблагодарите релизера, оцените раздачу и оставьте свои комментарий, если Вы скачали Кобра-Кай через торрент бесплатно! Внесите свою лепту в развитие PiratBit!
    Комментировать посты могут только пользователи прошедшие не сложную регистрацию
    Показать сообщения:    

    Кобра-Кай через торрент
    Скачать бесплатно Кобра-Кай
    Кобра-Кай скачать торрент
    Кобра-Кай смотреть онлайн
    Cкачать фильм Кобра-Кай бесплатно
    Кобра-Кай скачать торрент в хорошем качестве
    Кобра-Кай смотреть онлайн бесплатно в хорошем качестве


    Вы не можете начинать темы
    Вы не можете отвечать на сообщения
    Вы не можете редактировать свои сообщения
    Вы не можете удалять свои сообщения
    Вы не можете голосовать в опросах
    Вы не можете прикреплять файлы к сообщениям
    Вы можете скачивать файлы