Ссылка на приватное зеркало всего за 1$. Внимание количество ограничено!!!

OK

1+1

iTunes

мы

OK

1

WEB-DLRip

Джокер

Пифагор

Ведьмак / The Witcher сериал

iTunes

ПШазам

ОК

Оно 2

iTunes

30
pack

Вам бонус

ВАЖНО

!!Акция!!

Alien_RageХит недели

RePack

Resident Evil 21

ИГРА 18+

pack

RePack

jed

RePack

fifa19

RePack

Assassins Creed: Odyssey

RePack

NEED FOR SPEED™ PAYBACK

4 сезон

9 сезон

Бесстыжие 9 сезон

Все сериалы

все сериалы на PB.wtf

RePack

FAR CRY 5
  

Дурдом Мекка / Madhouse Mecca (Леонардо Уорнер) [2018, драма, WEB-DL 720p] MVO ["Синема УС"] pb.wtf

Дурдом Мекка через торрент pb.wtf

Размер: 2.81 GB | Добавлен: 9 мес. назад | Торрент скачан:9 раз
Скачать  

24-04-2019 15:21 Дурдом Мекка Скачать торрент  

Дурдом Мекка / Madhouse MeccaГод выпуска: 2018
Страна: США
Жанр: драма
Продолжительность: 01:12:04
Перевод: Любительский (многоголосый) | "Синема УС"
Субтитры: отсутствуют

Режиссер: Леонардо Уорнер

rating

В ролях:

Дэвид Кит, Скотт Эванс, Тера Патрик, Адам Лаворна, Тони Денмен, Эрика Киль, Рэйчел Фолкнер, Ребекка Лайнс, Крис Ламица, Джон Уилкинс III

Описание:

Отчаявшаяся домохозяйка Сара случайно знакомится с озорной экзотической танцовщицей Леной. Между женщинами завязывается дружба, которая изменит их жизнь навсегда.

Качество: WEB-DL 720p
Формат: MKV

Видео: h.264,5 199 Кбит/с, 1280x532
Аудио: Русский, (AC3, 2 ch, 384 Кбит/с)
скриншот  скриншот  скриншот  

Общее
Уникальный идентификатор : 245201549727542661271832586678987450655 (0xB87819C7ACB46A2B971101D959C0E91F)
Полное имя : D:\Madhouse.Mecca.2018.P.WEB-DL.72Op.mkv
Формат : Matroska
Версия формата : Version 2
Размер файла : 2,81 Гбайт
Продолжительность : 1 ч. 12 м.
Режим общего битрейта : Переменный
Общий поток : 5585 Кбит/сек
Дата кодирования : UTC 2019-04-23 07:53:04
Программа кодирования : mkvmerge v8.3.0 ('Over the Horizon') 64bit
Библиотека кодирования : libebml v1.3.1 + libmatroska v1.4.2

Видео
Идентификатор : 1
Формат : AVC
Формат/Информация : Advanced Video Codec
Профиль формата : High@L4.1
Параметр CABAC формата : Да
Параметр RefFrames формата : 4 кадра
Идентификатор кодека : V_MPEG4/ISO/AVC
Продолжительность : 1 ч. 12 м.
Вид битрейта : Переменный
Битрейт : 5199 Кбит/сек
Максимальный битрейт : 6000 Кбит/сек
Ширина : 1280 пикселей
Высота : 532 пикселя
Соотношение сторон : 2,40:1
Режим частоты кадров : Постоянный
Частота кадров : 23,976 (24000/1001) кадра/сек
Стандарт вещания : Component
Цветовое пространство : YUV
Субдискретизация насыщенности : 4:2:0
Битовая глубина : 8 бит
Тип развёртки : Прогрессивная
Бит/(Пиксели*Кадры) : 0.312
Размер потока : 2,56 Гбайт (91%)
Default : Да
Forced : Нет
Цветовой диапазон : Limited
Основные цвета : BT.709
Характеристики трансфера : BT.709
Коэффициенты матрицы : BT.709

Аудио
Идентификатор : 2
Формат : AC-3
Формат/Информация : Audio Coding 3
Расширение режима : CM (complete main)
Параметр Endianness формата : Big
Идентификатор кодека : A_AC3
Продолжительность : 1 ч. 12 м.
Вид битрейта : Постоянный
Битрейт : 384 Кбит/сек
Каналы : 2 канала
Расположение каналов : Front: L R
Частота : 48,0 КГц
Частота кадров : 31,250 кадров/сек (1536 spf)
Метод сжатия : С потерями
Размер потока : 198 Мбайт (7%)
Default : Да
Forced : Нет

pb.wtf



Скачать Дурдом Мекка через торрент https://a.radikal.ru/a24/1904/18/5a1cf78eb270.jpg Скачать фильм Дурдом Мекка через торрент бесплантно в хорошем качестве Описание: Отчаявшаяся домохозяйка Сара случайно знакомится с озорной экзотической танцовщицей Леной. Между женщинами завязывается дружба, ... 10 10 2
Торрент: Зарегистрирован [2019-04-24 15:21] · скачан: 9 раз
Статус: T временная
Размер: 2.81 GB
Как cкачать? Как скачать Дурдом Мекка через торрент | qTorrent

% Раздел Тема Автор DL S | L
T Фильмы (мультфильмы) cо спонсором показа (Новинки AVI/MKV) [ 1.34 GB ] Дурдом Мекка / Madhouse Mecca [2018 WEB-DLRip] MVO ["Синема УС"] bober100 Скачать
1 | 0

28-11-2019 20:33  

Отключить всю рекламу на сайте


    Дорогой пользователь! Огромная просьба, поблагодарите релизера, оцените раздачу и оставьте свои комментарий, если Вы скачали Дурдом Мекка через торрент бесплатно! Внесите свою лепту в развитие PiratBit!
    Комментировать посты могут только пользователи прошедшие не сложную регистрацию
    Показать сообщения:    

    Дурдом Мекка через торрент
    Скачать бесплатно Дурдом Мекка
    Дурдом Мекка скачать торрент
    Дурдом Мекка смотреть онлайн
    Cкачать фильм Дурдом Мекка бесплатно
    Дурдом Мекка скачать торрент в хорошем качестве
    Дурдом Мекка смотреть онлайн бесплатно в хорошем качестве


    Вы не можете начинать темы
    Вы не можете отвечать на сообщения
    Вы не можете редактировать свои сообщения
    Вы не можете удалять свои сообщения
    Вы не можете голосовать в опросах
    Вы не можете прикреплять файлы к сообщениям
    Вы можете скачивать файлы