Ссылка на приватное зеркало всего за 1$. Внимание количество ограничено!!!

iTunes

iTunes

iTunes

1

iTunes

iTunes

iTunes

WEBRip

iTunes

30
pack

$ от Little Big

ВАЖНО

!!Акция!!

Alien_RageХит недели

RePack

Resident Evil 21

ИГРА 18+

pack

RePack

jed

!!Акция!!

Alien_Rage

RePack

fifa19

RePack

Assassins Creed: Odyssey

RePack

NEED FOR SPEED™ PAYBACK

4 сезон

9 сезон

Бесстыжие 9 сезон

Все сериалы

все сериалы на PB.wtf

RePack

FAR CRY 5
  

Расстояния / Les distancies / Las dintancias (Елена Трапе) [2018, драма, BDRip 720p] MVO ["Синема УС"] pb.wtf

Расстояния через торрент pb.wtf

Размер: 5.1 GB | Добавлен: 1 год 3 мес. назад | Торрент скачан:6 раз
Скачать  

24-04-2019 15:41 Расстояния Скачать торрент  

Расстояния / Les distancies / Las dintanciasГод выпуска: 2018
Страна: Испания
Жанр: драма
Продолжительность: 01:41:22
Перевод: Любительский (многоголосый) | "Синема УС"
Субтитры: отсутствуют

Режиссер: Елена Трапе

rating

В ролях: Александра Хименес, Мики Эспарбе, Исак Феррис, Бруно Севилья, Мария Рибера

Описание: Оливия, Элой, Гийе и Анна отправляются в Берлин, чтобы неожиданно навестить своего друга, которому исполняется тридцать пять. Но Комас встречает их не так, как они ожидали. Выходные оказываются полны противоречий, а их дружба подвергается испытанию. Вместе они обнаружат, что время и расстояние могут изменить все.

Качество: BDRip 720p
Формат: MKV

Видео: h.264,6 746 Кбит/с, 1280x692
Аудио: Русский (AC3, 2 ch, 448 Кбит/с)
скриншот  скриншот  скриншот  

Общее
Уникальный идентификатор : 224854828264828247827743485875704054662 (0xA92976F5E49678919E1BB72585484386)
Полное имя : D:\Las.Distancias.2018.P.BDRip.72Op.mkv
Формат : Matroska
Версия формата : Version 2
Размер файла : 5,10 Гбайт
Продолжительность : 1 ч. 41 м.
Режим общего битрейта : Переменный
Общий поток : 7196 Кбит/сек
Дата кодирования : UTC 2019-04-23 01:04:11
Программа кодирования : mkvmerge v8.3.0 ('Over the Horizon') 64bit
Библиотека кодирования : libebml v1.3.1 + libmatroska v1.4.2

Видео
Идентификатор : 1
Формат : AVC
Формат/Информация : Advanced Video Codec
Профиль формата : High@L4.1
Параметр CABAC формата : Да
Параметр RefFrames формата : 4 кадра
Идентификатор кодека : V_MPEG4/ISO/AVC
Продолжительность : 1 ч. 41 м.
Вид битрейта : Переменный
Битрейт : 6746 Кбит/сек
Максимальный битрейт : 7500 Кбит/сек
Ширина : 1280 пикселей
Высота : 692 пикселя
Соотношение сторон : 1,85:1
Режим частоты кадров : Постоянный
Частота кадров : 23,976 (24000/1001) кадра/сек
Стандарт вещания : Component
Цветовое пространство : YUV
Субдискретизация насыщенности : 4:2:0
Битовая глубина : 8 бит
Тип развёртки : Прогрессивная
Бит/(Пиксели*Кадры) : 0.311
Размер потока : 4,68 Гбайт (92%)
Default : Да
Forced : Нет
Цветовой диапазон : Limited
Основные цвета : BT.709
Характеристики трансфера : BT.709
Коэффициенты матрицы : BT.709

Аудио
Идентификатор : 2
Формат : AC-3
Формат/Информация : Audio Coding 3
Расширение режима : CM (complete main)
Параметр Endianness формата : Big
Идентификатор кодека : A_AC3
Продолжительность : 1 ч. 41 м.
Вид битрейта : Постоянный
Битрейт : 448 Кбит/сек
Каналы : 2 канала
Расположение каналов : Front: L R
Частота : 48,0 КГц
Частота кадров : 31,250 кадров/сек (1536 spf)
Метод сжатия : С потерями
Размер потока : 325 Мбайт (6%)
Default : Да
Forced : Нет

pb.wtf



Скачать Расстояния через торрент https://d.radikal.ru/d41/1904/4b/88eb27e61b7b.jpg Скачать фильм Расстояния через торрент бесплантно в хорошем качестве Описание: Оливия, Элой, Гийе и Анна отправляются в Берлин, чтобы неожиданно навестить своего друга, которому исполняется тридцать пять. Но ... 10 10 2
Торрент: Зарегистрирован [2019-04-24 15:41] · скачан: 6 раз
Статус: # сомнительно
Размер: 5.1 GB
Как cкачать? Как скачать Расстояния через торрент | qTorrent

% Раздел Тема Автор DL S | L
T Фильмы (мультфильмы) cо спонсором показа (Новинки AVI/MKV) [ 1.46 GB ] Расстояния / Les distancies / Las dintancias [2018 HDRip] MVO ["Синема УС"] bober100 Скачать
1 | 0

28-11-2019 20:33  

Отключить всю рекламу на сайте

    Дорогой пользователь! Огромная просьба, поблагодарите релизера, оцените раздачу и оставьте свои комментарий, если Вы скачали Расстояния через торрент бесплатно! Внесите свою лепту в развитие PiratBit!
    Комментировать посты могут только пользователи прошедшие не сложную регистрацию
    Показать сообщения:    

    Расстояния через торрент
    Скачать бесплатно Расстояния
    Расстояния скачать торрент
    Расстояния смотреть онлайн
    Cкачать фильм Расстояния бесплатно
    Расстояния скачать торрент в хорошем качестве
    Расстояния смотреть онлайн бесплатно в хорошем качестве


    Вы не можете начинать темы
    Вы не можете отвечать на сообщения
    Вы не можете редактировать свои сообщения
    Вы не можете удалять свои сообщения
    Вы не можете голосовать в опросах
    Вы не можете прикреплять файлы к сообщениям
    Вы можете скачивать файлы