новый адрес
Ссылка на приватное зеркало всего за 1$. Внимание количество ограничено!!!

iTunes

1+1

iTunes

мы

WEB-DL

1

iTunes

Чернобыль

iTunes

Ральф против интернета

Лицензия

ПШазам

Лицензия

Оно 2

Лицензия

30
pack

Вам бонус

ВАЖНО

!!Акция!!

Alien_RageХит недели

RePack

Resident Evil 21

ИГРА 18+

pack

RePack

jed

!!Акция!!

Alien_Rage

RePack

fifa19

RePack

Assassins Creed: Odyssey

RePack

NEED FOR SPEED™ PAYBACK

3 сезон

9 сезон

Бесстыжие 9 сезон

Все сериалы

все сериалы на PB.wtf

RePack

FAR CRY 5
Ребята, катастрофически не хватает 1900р. для оплаты серверов за Октябрь (всвязи с блокировками трафик упал в 3 раза), 1-2р., выручайте.
  

Код Красный / Red Joan (Тревор Нанн) [2018, драма, мелодрама, биография, BDRip-AVC] DUB [iTunes] +MVO [HDRezka Studio] pb.wtf

Код Красный через торрент pb.wtf

Раздают: 1 [ 18 KB/s ]
Размер: 1.68 GB | Добавлен: 3 мес. 22 д. назад | Торрент скачан:181 раз
Скачать  

24-04-2019 16:15 Код Красный Скачать торрент  

Код Красный / Red Joan«Реальная история русской шпионки, предотвратившей Третью мировую войну»
Год выпуска: 2018
Страна: Великобритания
Жанр: драма, мелодрама, биография
Продолжительность: 01:40:56
Перевод:

#1: Дублированный | iTunes
#2: Профессиональный многоголосый | HDRezka Studio

Субтитры: Английские (полные, SDH)

Режиссер: Тревор Нанн

rating

В ролях: Джуди Денч, Софи Куксон, Стивен Кэмпбелл Мур, Том Хьюз, Лоуренс Спэллман, Тереза Србова, Бен Майлз, Робин Соанс, Кевин Фуллер, Стефен Боксер

Описание: Реальная история русской шпионки, которая предотвратила Третью мировую войну. Британская разведка долгие годы гонялась за ней, ее имя стало легендой, но о ее подвиге мы узнали только сейчас, когда был снят гриф секретности.

Качество: BDRip-AVC
Формат: MKV

Видео: 1920x804 (2.40:1), 24,000 fps, x264 ~14.0 Mbps avg, 0.378 bit/pixel
Аудио#1: 48 kHz, AC3 Dolby Digital, 3/2 (L,C,R,l,r) + LFE ch, ~384.00 kbps avg | RUS (iTunes)
Аудио#2: 48 kHz, AC3 Dolby Digital, 2 (L,R) ch, ~192.00 kbps avg | RUS (HDRezka Studio)
скриншот  скриншот  скриншот  скриншот  скриншот  

Общее
Уникальный идентификатор : 16410107597572667638819297067153764816 (0xC5878C558DD40A9266FF187375031D0)
Полное имя : F:\OlLanDGroup\Red.Joan.2018.BDRip(AVC).OlLanDGroup.mkv
Формат : Matroska
Версия формата : Version 4 / Version 2
Размер файла : 1,68 Гбайт
Продолжительность : 1 ч. 40 м.
Общий поток : 2389 Кбит/сек
Название фильма : Red.Joan.2018 #TorpedoUK#
Дата кодирования : UTC 2019-08-16 05:27:19
Программа кодирования : mkvmerge v29.0.0 ('Like It Or Not') 64-bit
Библиотека кодирования : libebml v1.3.6 + libmatroska v1.4.9

Видео
Идентификатор : 1
Формат : AVC
Формат/Информация : Advanced Video Codec
Профиль формата : High@L4.1
Параметр CABAC формата : Да
Параметр ReFrames формата : 10 кадров
Идентификатор кодека : V_MPEG4/ISO/AVC
Продолжительность : 1 ч. 40 м.
Битрейт : 1815 Кбит/сек
Ширина : 1024 пикселя
Высота : 428 пикселей
Соотношение сторон : 2,40:1
Режим частоты кадров : Постоянный
Частота кадров : 24,000 кадра/сек
Цветовое пространство : YUV
Субдискретизация насыщенности : 4:2:0
Битовая глубина : 8 бит
Тип развёртки : Прогрессивная
Бит/(Пиксели*Кадры) : 0.173
Размер потока : 1,28 Гбайт (76%)
Библиотека кодирования : x264 core 146 r2538 121396c
Настройки программы : cabac=1 / ref=10 / deblock=1:-3:-3 / analyse=0x3:0x113 / me=umh / subme=11 / psy=1 / psy_rd=0.98:0.04 / mixed_ref=1 / me_range=48 / chroma_me=1 / trellis=2 / 8x8dct=1 / cqm=0 / deadzone=21,11 / fast_pskip=1 / chroma_qp_offset=-3 / threads=6 / lookahead_threads=1 / sliced_threads=0 / nr=0 / decimate=1 / interlaced=0 / bluray_compat=0 / constrained_intra=0 / bframes=11 / b_pyramid=2 / b_adapt=2 / b_bias=0 / direct=3 / weightb=1 / open_gop=0 / weightp=2 / keyint=240 / keyint_min=24 / scenecut=40 / intra_refresh=0 / rc_lookahead=40 / rc=2pass / mbtree=0 / bitrate=1815 / ratetol=1.0 / qcomp=0.60 / qpmin=0 / qpmax=69 / qpstep=4 / cplxblur=20.0 / qblur=0.5 / vbv_maxrate=50000 / vbv_bufsize=62500 / nal_hrd=none / filler=0 / ip_ratio=1.40 / pb_ratio=1.30 / aq=1:1.00
Язык : English
Default : Да
Forced : Нет

Аудио #1
Идентификатор : 2
Формат : AC-3
Формат/Информация : Audio Coding 3
Расширение режима : CM (complete main)
Параметр Endianness формата : Big
Идентификатор кодека : A_AC3
Продолжительность : 1 ч. 40 м.
Вид битрейта : Постоянный
Битрейт : 384 Кбит/сек
Каналы : 6 каналов
Расположение каналов : Front: L C R, Side: L R, LFE
Частота : 48,0 КГц
Частота кадров : 31,250 кадров/сек (1536 spf)
Битовая глубина : 16 бит
Метод сжатия : С потерями
Размер потока : 277 Мбайт (16%)
Заголовок : DUB [iTunes]
Язык : Russian
Default : Да
Forced : Нет

Аудио #2
Идентификатор : 3
Формат : AC-3
Формат/Информация : Audio Coding 3
Расширение режима : CM (complete main)
Параметр Endianness формата : Big
Идентификатор кодека : A_AC3
Продолжительность : 1 ч. 40 м.
Вид битрейта : Постоянный
Битрейт : 192 Кбит/сек
Каналы : 2 канала
Расположение каналов : Front: L R
Частота : 48,0 КГц
Частота кадров : 31,250 кадров/сек (1536 spf)
Битовая глубина : 16 бит
Метод сжатия : С потерями
Размер потока : 138 Мбайт (8%)
Заголовок : MVO [HDRezka Studio]
Язык : Russian
Default : Нет
Forced : Нет

Текст #1
Идентификатор : 4
Формат : UTF-8
Идентификатор кодека : S_TEXT/UTF8
Идентификатор кодека/Информация : UTF-8 Plain Text
Продолжительность : 1 ч. 35 м.
Битрейт : 55 бит/сек
Count of elements : 1256
Размер потока : 38,9 Кбайт (0%)
Заголовок : Full
Язык : English
Default : Нет
Forced : Нет

Текст #2
Идентификатор : 5
Формат : UTF-8
Идентификатор кодека : S_TEXT/UTF8
Идентификатор кодека/Информация : UTF-8 Plain Text
Продолжительность : 1 ч. 40 м.
Битрейт : 57 бит/сек
Count of elements : 1450
Размер потока : 42,0 Кбайт (0%)
Заголовок : SDH
Язык : English
Default : Нет
Forced : Нет

Меню
00:00:00.000 : en:Chapter 01
00:06:13.708 : en:Chapter 02
00:14:22.167 : en:Chapter 03
00:23:30.542 : en:Chapter 04
00:31:38.042 : en:Chapter 05
00:39:50.875 : en:Chapter 06
00:51:48.625 : en:Chapter 07
01:01:47.542 : en:Chapter 08
01:09:32.250 : en:Chapter 09
01:15:04.000 : en:Chapter 10
01:23:56.750 : en:Chapter 11
01:29:02.333 : en:Chapter 12

pb.wtf



Скачать Код Красный через торрент https://i87.fastpic.ru/big/2019/0808/b5/939ba15c4861cb5e926b4bb5b825f1b5.jpg Скачать фильм Код Красный через торрент бесплантно в хорошем качестве Описание: Реальная история русской шпионки, которая предотвратила Третью мировую войну. Британская разведка долгие годы гонялась за ней, ее ... 9.1 10 7
Торрент: Зарегистрирован [2019-08-16 05:45] · скачан: 181 раз
Статус: √ проверено
Размер: 1.68 GB
Как cкачать? Как скачать Код Красный через торрент | qTorrent

% Раздел Тема Автор DL S | L
Фильмы [HD 720p, 1080p] (Хороший звук DUB, MVO) [ 10.81 GB ] Код Красный / Red Joan [2018 биография BDRip 1080p] +MVO [HDRezka Studio] bober100 Скачать
3 | 0
T Фильмы 2018 [DVDrip, WEB-DLRip, HDrip] (DUB, MVO) [ 744 MB ] Код Красный / Red Joan [2018 биография HDRip] MVO [HDrezka Studio] bober100 Скачать
1 | 0
Фильмы 2018 [DVDrip, WEB-DLRip, HDrip] (DUB, MVO) [ 1.42 GB ] Код Красный / Red Joan [2018 биография BDRip] bober100 Скачать
3 | 0

28-11-2019 20:33  

Отключить всю рекламу на сайте

    Дорогой пользователь! Огромная просьба, поблагодарите релизера, оцените раздачу и оставьте свои комментарий, если Вы скачали Код Красный через торрент бесплатно! Внесите свою лепту в развитие PiratBit!
    Комментировать посты могут только пользователи прошедшие не сложную регистрацию
    Показать сообщения:    

    Код Красный через торрент
    Скачать бесплатно Код Красный
    Код Красный скачать торрент
    Код Красный смотреть онлайн
    Cкачать фильм Код Красный бесплатно
    Код Красный скачать торрент в хорошем качестве
    Код Красный смотреть онлайн бесплатно в хорошем качестве


    Вы не можете начинать темы
    Вы не можете отвечать на сообщения
    Вы не можете редактировать свои сообщения
    Вы не можете удалять свои сообщения
    Вы не можете голосовать в опросах
    Вы не можете прикреплять файлы к сообщениям
    Вы можете скачивать файлы