Ссылка на приватное зеркало всего за 1$. Внимание количество ограничено!!!

OK

1+1

iTunes

мы

OK

1

WEB-DLRip

Джокер

Пифагор

Ведьмак / The Witcher сериал

iTunes

ПШазам

ОК

Оно 2

iTunes

30
pack

Вам бонус

ВАЖНО

!!Акция!!

Alien_RageХит недели

RePack

Resident Evil 21

ИГРА 18+

pack

RePack

jed

RePack

fifa19

RePack

Assassins Creed: Odyssey

RePack

NEED FOR SPEED™ PAYBACK

4 сезон

9 сезон

Бесстыжие 9 сезон

Все сериалы

все сериалы на PB.wtf

RePack

FAR CRY 5
  

Парень из гетто / Gully Boy (Зоя Ахтар) [2019, драма, биография, музыка, WEB-DL 720p] MVO ["Синема УС"] pb.wtf

Парень из гетто через торрент pb.wtf

Размер: 6.32 GB | Добавлен: 9 мес. назад | Торрент скачан:11 раз
Скачать  

24-04-2019 16:34 Парень из гетто Скачать торрент  

Парень из гетто / Gully BoyГод выпуска: 2019
Страна: Индия
Жанр: драма, биография, музыка
Продолжительность: 02:35:04
Перевод: Любительский (многоголосый) | "Синема УС"
Субтитры: отсутствуют

Режиссер: Зоя Ахтар

rating

В ролях: Ранвир Сингх, Алиа Бхатт, Сиддхант Чатурведи, Виджай Рааз, Амрута Субхаш, Виджай Варма, Калки Коечлин, Ikhlaque Khan, Шиба Чадха, Джоти Субхаш

Описание: История двух уличных рэперов Вивиана Фернандеса (DIVINE) и Наведа Шейха (Naezy), которые прославились песней «Mere Gully Mein».

Качество: WEB-DL 720p
Формат: MKV

Видео: h.264,5 447 Кбит/с, 1280x576
Аудио: Русский, (AC3, 2 ch, 384 Кбит/с)
скриншот  скриншот  скриншот  

Общее
Уникальный идентификатор : 231829055797350332747277676687252026994 (0xAE68A6ED015A47A88B77DAF6205C7672)
Полное имя : D:\Gully.Boy.2019.P.WEB-DL.72Op.mkv
Формат : Matroska
Версия формата : Version 2
Размер файла : 6,32 Гбайт
Продолжительность : 2 ч. 35 м.
Режим общего битрейта : Переменный
Общий поток : 5832 Кбит/сек
Дата кодирования : UTC 2019-04-23 06:22:23
Программа кодирования : mkvmerge v8.3.0 ('Over the Horizon') 64bit
Библиотека кодирования : libebml v1.3.1 + libmatroska v1.4.2

Видео
Идентификатор : 1
Формат : AVC
Формат/Информация : Advanced Video Codec
Профиль формата : High@L4.1
Параметр CABAC формата : Да
Параметр RefFrames формата : 4 кадра
Идентификатор кодека : V_MPEG4/ISO/AVC
Продолжительность : 2 ч. 35 м.
Вид битрейта : Переменный
Битрейт : 5547 Кбит/сек
Максимальный битрейт : 6000 Кбит/сек
Ширина : 1280 пикселей
Высота : 576 пикселей
Соотношение сторон : 2,222
Режим частоты кадров : Постоянный
Частота кадров : 23,976 (24000/1001) кадра/сек
Стандарт вещания : Component
Цветовое пространство : YUV
Субдискретизация насыщенности : 4:2:0
Битовая глубина : 8 бит
Тип развёртки : Прогрессивная
Бит/(Пиксели*Кадры) : 0.302
Размер потока : 5,78 Гбайт (91%)
Default : Да
Forced : Нет
Цветовой диапазон : Limited
Основные цвета : BT.709
Характеристики трансфера : BT.709
Коэффициенты матрицы : BT.709

Аудио
Идентификатор : 2
Формат : AC-3
Формат/Информация : Audio Coding 3
Расширение режима : CM (complete main)
Параметр Endianness формата : Big
Идентификатор кодека : A_AC3
Продолжительность : 2 ч. 35 м.
Вид битрейта : Постоянный
Битрейт : 384 Кбит/сек
Каналы : 2 канала
Расположение каналов : Front: L R
Частота : 48,0 КГц
Частота кадров : 31,250 кадров/сек (1536 spf)
Метод сжатия : С потерями
Размер потока : 426 Мбайт (7%)
Default : Да
Forced : Нет

pb.wtf



Скачать Парень из гетто через торрент https://b.radikal.ru/b36/1904/48/51934c427462.jpg Скачать фильм Парень из гетто через торрент бесплантно в хорошем качестве Описание: История двух уличных рэперов Вивиана Фернандеса (DIVINE) и Наведа Шейха (Naezy), которые прославились песней «Mere Gully ... 10 10 2
Торрент: Зарегистрирован [2019-04-24 16:34] · скачан: 11 раз
Статус: T временная
Размер: 6.32 GB
Как cкачать? Как скачать Парень из гетто через торрент | qTorrent

% Раздел Тема Автор DL S | L
T Фильмы (мультфильмы) cо спонсором показа (Новинки AVI/MKV) [ 2.18 GB ] Парень из гетто / Gully Boy [2019 биография музыка WEB-DLRip] MVO ["Синема УС"] bober100 Скачать
1 | 0
T Фильмы (мультфильмы) cо спонсором показа (Новинки AVI/MKV) [ 1.46 GB ] Парень из гетто / Gully Boy [2019 биография музыка WEB-DLRip] MVO ["Синема УС"] bober100 Скачать
1 | 0

28-11-2019 20:33  

Отключить всю рекламу на сайте

    Дорогой пользователь! Огромная просьба, поблагодарите релизера, оцените раздачу и оставьте свои комментарий, если Вы скачали Парень из гетто через торрент бесплатно! Внесите свою лепту в развитие PiratBit!
    Комментировать посты могут только пользователи прошедшие не сложную регистрацию
    Показать сообщения:    

    Парень из гетто через торрент
    Скачать бесплатно Парень из гетто
    Парень из гетто скачать торрент
    Парень из гетто смотреть онлайн
    Cкачать фильм Парень из гетто бесплатно
    Парень из гетто скачать торрент в хорошем качестве
    Парень из гетто смотреть онлайн бесплатно в хорошем качестве


    Вы не можете начинать темы
    Вы не можете отвечать на сообщения
    Вы не можете редактировать свои сообщения
    Вы не можете удалять свои сообщения
    Вы не можете голосовать в опросах
    Вы не можете прикреплять файлы к сообщениям
    Вы можете скачивать файлы