Ссылка на приватное зеркало нашего сайта всего за 1$. Внимание количество ограничено!!!

2 сезон

iTunes

1 сезон

1

iTunes

iTunes

iTunes

1 сезон

RePack

30

ИГРА 18+

pack

ВАЖНО

!!Акция!!

Alien_RageХит недели

RePack

MK11
pack

Забери бонус

RePack

jed

!!Акция!!

Alien_Rage

RePack

fifa19

RePack

Assassins Creed: Odyssey

RePack

NEED FOR SPEED™ PAYBACK

4 сезон

9 сезон

Бесстыжие 9 сезон

Все сериалы

все сериалы на PB.wtf

RePack

FAR CRY 5
  

Наркомовский обоз / Серии: 1-4 из 4 (Влад Фурман) [2011, военный, драма, HDTVRip 720p] pb.wtf

Наркомовский обоз через торрент pb.wtf

Размер: 7.71 GB | Добавлен: 1 год 6 мес. назад | Торрент скачан:51 раз
Скачать  

24-04-2019 17:43 Наркомовский обоз Скачать торрент  

Наркомовский обоз Год выпуска: 2011
Страна: Россия
Жанр: военный, драма
Продолжительность: ~ 00:48:00 серия
Субтитры: отсутствуют

Режиссер: Влад Фурман

rating

В ролях:
Сергей Маховиков (Виктор Филиппов, старшина), Ольга Фадеева (Тамара Симович), Анна Арланова (Надежда), Ирина Рахманова (Прасковья Марченко), Ричард Бондарев, Анатолий Петров (Хомяков Анатолий, старший политрук), Дарья Баранова (Варвара Кержак), Алексей Дозморов (водитель Хлебородов), Агния Кузнецова, Кирилл Новицкий (молодой бандит), Юлия Полубинская (Сима), Сергей Савенков (Денис)
Описание:

1941 год. Только что вышло постановление Комитета Обороны о водочном довольствии для действующей армии.

Старшина Филиппов получает задание: впервые доставить в стрелковую дивизию те самые знаменитые «100 наркомовских грамм». В помощники ему дают 4 девушки-красноармейца, местного старика-проводника Архипа и его внука-подростка Митю. Погрузив на телеги тару, обоз трогается в путь. За несколько часов этой, казалось бы, рутинной тыловой поездки всем им предстоит пройти настоящие военные испытания: не единожды вступить бой, стать свидетелями высокой доблести и подлой трусости.

Качество: HDTVRip 720p
Формат: MKV

Видео: 1280x720 (16:9), 25.000 fps, AVC MPEG-4 (x.264), High@L4.1 ~5600 kbps, 0.243 bit/pixel
Аудио: 48 kHz, AC3 Dolby Digital, 2/0 (L,R) ch, ~192 kbps
скриншот  скриншот  скриншот  скриншот  

скриншот  скриншот  скриншот  скриншот  

General
Unique ID : 205312201163311878414282568929863598494 (0x9A75B10DCD3EC2C18A06127E9C8D019E)
Complete name : E:Narkomovskij oboz.2011_Klayd X1.Narkomovskij oboz.2011_Klayd X.mkv
Format : Matroska
File size : 1.92 GiB
Duration : 47mn 23s
Overall bit rate : 5 813 Kbps
Encoded date : UTC 2013-05-06 22:19:18
Writing application : mkvmerge v5.8.0 ('No Sleep / Pillow') built on Sep 2 2012 15:37:04
Writing library : libebml v1.2.3 + libmatroska v1.3.0

Video
ID : 1
Format : AVC
Format/Info : Advanced Video Codec
Format profile : High@L4.1
Format settings, CABAC : Yes
Format settings, ReFrames : 6 frames
Codec ID : V_MPEG4/ISO/AVC
Duration : 47mn 23s
Bit rate : 5 600 Kbps
Width : 1 280 pixels
Height : 720 pixels
Display aspect ratio : 16:9
Frame rate : 25.000 fps
Color space : YUV
Chroma subsampling : 4:2:0
Bit depth : 8 bits
Scan type : Progressive
Bits/(Pixel*Frame) : 0.243
Stream size : 1.82 GiB (95%)
Writing library : x264 core 125 r2208 d9d2288
Encoding settings : cabac=1 / ref=6 / deblock=1:-1:-1 / analyse=0x3:0x113 / me=umh / subme=10 / psy=1 / psy_rd=0.00:0.10 / mixed_ref=1 / me_range=32 / chroma_me=1 / trellis=2 / 8x8dct=1 / cqm=0 / deadzone=21,11 / fast_pskip=0 / chroma_qp_offset=-1 / threads=12 / lookahead_threads=2 / sliced_threads=0 / nr=0 / decimate=1 / interlaced=0 / bluray_compat=0 / constrained_intra=0 / bframes=6 / b_pyramid=2 / b_adapt=1 / b_bias=0 / direct=0 / weightb=1 / open_gop=0 / weightp=2 / keyint=250 / keyint_min=25 / scenecut=40 / intra_refresh=0 / rc_lookahead=40 / rc=abr / mbtree=1 / bitrate=5600 / ratetol=1.0 / qcomp=0.60 / qpmin=0 / qpmax=69 / qpstep=4 / ip_ratio=1.40 / aq=1:1.00

Audio
ID : 2
Format : AC-3
Format/Info : Audio Coding 3
Mode extension : CM (complete main)
Codec ID : A_AC3
Duration : 47mn 23s
Bit rate mode : Constant
Bit rate : 192 Kbps
Channel(s) : 2 channels
Channel positions : Front: L R
Sampling rate : 48.0 KHz
Bit depth : 16 bits
Compression mode : Lossy
Stream size : 65.1 MiB (3%)

pb.wtf



Скачать Наркомовский обоз через торрент http://i48.fastpic.ru/big/2013/0509/07/0d0ba02a4d616aa55ba63242b9bd2c07.jpg Скачать фильм Наркомовский обоз через торрент бесплантно в хорошем качестве Описание: 1941 год. Только что вышло постановление Комитета Обороны о водочном довольствии для действующей армии.Старшина Филиппов получает ... 10 10 5
Торрент: Зарегистрирован [2019-04-24 17:43] · скачан: 51 раз
Статус: √ проверено
Размер: 7.71 GB
Как cкачать? Как скачать Наркомовский обоз через торрент | qTorrent

% Раздел Тема Автор DL S | L
Наши сериалы [ 2.17 GB ] Наркомовский обоз / Сезон: 1 Серии: 4 из 4 [2011 военный SATRip] -=Cherry=- Скачать
1 | 0

28-11-2019 20:33  

Отключить всю рекламу на сайте

    Дорогой пользователь! Огромная просьба, поблагодарите релизера, оцените раздачу и оставьте свои комментарий, если Вы скачали Наркомовский обоз через торрент бесплатно! Внесите свою лепту в развитие PiratBit!
    Комментировать посты могут только пользователи прошедшие не сложную регистрацию
    Показать сообщения:    

    Наркомовский обоз через торрент
    Скачать бесплатно Наркомовский обоз
    Наркомовский обоз скачать торрент
    Наркомовский обоз смотреть онлайн
    Cкачать фильм Наркомовский обоз бесплатно
    Наркомовский обоз скачать торрент в хорошем качестве
    Наркомовский обоз смотреть онлайн бесплатно в хорошем качестве


    Вы не можете начинать темы
    Вы не можете отвечать на сообщения
    Вы не можете редактировать свои сообщения
    Вы не можете удалять свои сообщения
    Вы не можете голосовать в опросах
    Вы не можете прикреплять файлы к сообщениям
    Вы можете скачивать файлы