Ссылка на приватное зеркало нашего сайта всего за 1$. Внимание количество ограничено!!!

2 сезон

iTunes

1 сезон

1

2 сезон

2 сезон

iTunes

1 сезон

RePack

30

Ultimate

ВАЖНО

ИГРА 18+

pack

RePack

MK11
pack

Забери бонус

RePack

jed

!!Акция!!

Alien_Rage

RePack

fifa19

RePack

Assassins Creed: Odyssey

RePack

NEED FOR SPEED™ PAYBACK

4 сезон

9 сезон

Бесстыжие 9 сезон

Все сериалы

все сериалы на PB.wtf

RePack

FAR CRY 5
  

Под Эйфелевой башней / Under the Eiffel Tower (Арчи Бордерс) [2018, Мелодрама, WEB-DL 1080p] MVO [HDRezka Studio] pb.wtf

Под Эйфелевой башней через торрент pb.wtf

Размер: 3.13 GB | Добавлен: 1 год 7 мес. назад | Торрент скачан:34 раза
Скачать  

24-04-2019 18:08 Под Эйфелевой башней Скачать торрент  

Под Эйфелевой башней / Under the Eiffel Tower Год выпуска: 2018
Страна: США
Жанр: Мелодрама
Продолжительность: 01:27:04
Перевод: Профессиональный (многоголосый) | HDRezka Studio
Субтитры: английские

Режиссер: Арчи Бордерс

rating

В ролях:

Мэтт Уолш, Жюдит Годреш, Рейд Скотт, Микейла Уоткинс, Дэвид Уэйн, Дилан Гелула, Тесс Бартелеми, Гэри Коул, Эри Абиттан, Фабрис Кольсон

Описание:

Стюарт — 50-летний мужчина, который переживает кризис среднего возраста. После увольнения из компании, где он успешно занимался продажей алкогольных напитков, главный герой принимает предложение лучшего друга отправиться на двухнедельный семейный отпуск во Францию. Во время путешествия Стюарт, расценив дружелюбное отношение 26-летней дочери друга, как признак проявления симпатии, спонтанно решает сделать ей предложение руки и сердца под Эйфелевой башней. Но неожиданный ответ девушки приводит к череде событий, которым суждено изменить жизнь мужчины.

Качество: WEB-DL 1080p
Формат: MKV

Видео: MPEG-4 AVC, 4565 Кбит/с, 1920х816
Аудио#1: Русский: AC3, 2 ch, 192 Кбит/с - HDRezka Studio
Аудио#2: Английский: AC3, 6 ch, 384 Кбит/с - Original
скриншот  скриншот  скриншот  скриншот  

General
Unique ID : 91852942853125343516844209676070288157 (0x451A3BBA575E77990D3CA95D150DFB1D)
Complete name : G:Under.The.Eiffel.Tower.2018.WEB-DL.1080p.mkv
Format : Matroska
Format version : Version 4 / Version 2
File size : 3.13 GiB
Duration : 1 h 27 min
Overall bit rate : 5 144 kb/s
Encoded date : UTC 2019-04-18 04:20:07
Writing application : mkvmerge v20.0.0 ('I Am The Sun') 64-bit
Writing library : libebml v1.3.5 + libmatroska v1.4.8

Video
ID : 1
Format : AVC
Format/Info : Advanced Video Codec
Format profile : High@L4
Format settings : CABAC / 5 Ref Frames
Format settings, CABAC : Yes
Format settings, RefFrames : 5 frames
Codec ID : V_MPEG4/ISO/AVC
Duration : 1 h 27 min
Bit rate : 4 565 kb/s
Width : 1 920 pixels
Height : 816 pixels
Display aspect ratio : 2.35:1
Frame rate mode : Constant
Frame rate : 23.976 (24000/1001) FPS
Color space : YUV
Chroma subsampling : 4:2:0
Bit depth : 8 bits
Scan type : Progressive
Bits/(Pixel*Frame) : 0.122
Stream size : 2.78 GiB (89%)
Language : English
Default : Yes
Forced : No
Color range : Limited
Color primaries : BT.709
Transfer characteristics : BT.709
Matrix coefficients : BT.709

Audio #1
ID : 2
Format : AC-3
Format/Info : Audio Coding 3
Codec ID : A_AC3
Duration : 1 h 27 min
Bit rate mode : Constant
Bit rate : 192 kb/s
Channel(s) : 2 channels
Channel positions : Front: L R
Sampling rate : 48.0 kHz
Frame rate : 31.250 FPS (1536 SPF)
Bit depth : 16 bits
Compression mode : Lossy
Stream size : 120 MiB (4%)
Title : MVO, HDRezka Studio
Language : Russian
Service kind : Complete Main
Default : Yes
Forced : No

Audio #2
ID : 3
Format : AC-3
Format/Info : Audio Coding 3
Codec ID : A_AC3
Duration : 1 h 27 min
Bit rate mode : Constant
Bit rate : 384 kb/s
Channel(s) : 6 channels
Channel positions : Front: L C R, Side: L R, LFE
Sampling rate : 48.0 kHz
Frame rate : 31.250 FPS (1536 SPF)
Bit depth : 16 bits
Compression mode : Lossy
Stream size : 239 MiB (7%)
Language : English
Service kind : Complete Main
Default : No
Forced : No

Text
ID : 4
Format : UTF-8
Codec ID : S_TEXT/UTF8
Codec ID/Info : UTF-8 Plain Text
Duration : 1 h 22 min
Bit rate : 99 b/s
Count of elements : 1462
Stream size : 60.2 KiB (0%)
Language : English
Default : No
Forced : No

Menu
00:00:00.000 : en:1
00:15:00.000 : en:2
00:30:00.000 : en:3
00:45:00.000 : en:4
01:00:00.000 : en:5
01:15:00.000 : en:6

pb.wtf



Скачать Под Эйфелевой башней через торрент https://d.radikal.ru/d29/1904/2e/71dd10d7e232.png Скачать фильм Под Эйфелевой башней через торрент бесплантно в хорошем качестве Описание: Стюарт — 50-летний мужчина, который переживает кризис среднего возраста. После увольнения из компании, где он успешно занимался ... 7.8 10 4
Торрент: Зарегистрирован [2019-04-24 18:08] · скачан: 34 раз
Статус: T временная
Размер: 3.13 GB
Как cкачать? Как скачать Под Эйфелевой башней через торрент | qTorrent

28-11-2019 20:33  

Отключить всю рекламу на сайте

    Дорогой пользователь! Огромная просьба, поблагодарите релизера, оцените раздачу и оставьте свои комментарий, если Вы скачали Под Эйфелевой башней через торрент бесплатно! Внесите свою лепту в развитие PiratBit!
    Комментировать посты могут только пользователи прошедшие не сложную регистрацию
    Показать сообщения:    

    Под Эйфелевой башней через торрент
    Скачать бесплатно Под Эйфелевой башней
    Под Эйфелевой башней скачать торрент
    Под Эйфелевой башней смотреть онлайн
    Cкачать фильм Под Эйфелевой башней бесплатно
    Под Эйфелевой башней скачать торрент в хорошем качестве
    Под Эйфелевой башней смотреть онлайн бесплатно в хорошем качестве


    Вы не можете начинать темы
    Вы не можете отвечать на сообщения
    Вы не можете редактировать свои сообщения
    Вы не можете удалять свои сообщения
    Вы не можете голосовать в опросах
    Вы не можете прикреплять файлы к сообщениям
    Вы можете скачивать файлы