Ссылка на приватное зеркало всего за 1$. Внимание количество ограничено!!!

iTunes

iTunes

iTunes

1

iTunes

iTunes

iTunes

iTunes

iTunes

30
pack

$ от Little Big

ВАЖНО

!!Акция!!

Alien_RageХит недели

RePack

Resident Evil 21

ИГРА 18+

pack

RePack

jed

!!Акция!!

Alien_Rage

RePack

fifa19

RePack

Assassins Creed: Odyssey

RePack

NEED FOR SPEED™ PAYBACK

4 сезон

9 сезон

Бесстыжие 9 сезон

Все сериалы

все сериалы на PB.wtf

RePack

FAR CRY 5
  

Наркокурьер / The Mule (Клинт Иствуд) [2018, триллер, драма, криминал, детектив, BDRip 720p] DUB [iTunes] pb.wtf

Наркокурьер через торрент pb.wtf

Раздают: 2 [ 0 KB/s ]
Размер: 6.22 GB | Добавлен: 1 год 2 мес. назад | Торрент скачан:875 раз
Скачать  

24-04-2019 19:07 Наркокурьер Скачать торрент  

Наркокурьер / The Mule Год выпуска: 2018
Страна: США
Жанр: триллер, драма, криминал, детектив
Продолжительность: 01:56:27
Перевод: Дублированный | iTunes
Субтитры: Русские (Forced, full), английские

Режиссер: Клинт Иствуд

rating

В ролях:

Клинт Иствуд (Earl Stone), Брэдли Купер (Agent Colin Bates), Лоренс Фишбёрн (Special Agent in Charge), Майкл Пенья (Agent Treviño), Дайэнн Уист (Mary), Энди Гарсиа (Laton), Элисон Иствуд (Iris), Таисса Фармига (Ginny), Игнасио Серричио (Julio), Лорен Дин (Agent Brown), Виктор Расук (Rico), Мэнни Монтана (Axl)
Описание:

Эрл Стоун - одинокий старик. Его частный бизнес находится на грани разорения, отношения с женой не ладятся, а дети, кажется, давно забыли о его существовании. Неожиданно ему предлагают непыльную, но прибыльную работенку - просто водить машину. Стоун поначалу соглашается и вскоре понимает, что стал наркокурьером мексиканского картеля и попал в поле зрения оперативника Агентства по контролю за оборотом наркотиков.

Качество: BDRip 720p
Формат: MKV

Видео: MPEG-4 AVC, 1280x536, 6617 Кbit/s, 23.976 fps
Аудио#1: 48 kHz, AC3, 5.1, 384 Kbps | iTunes | RUS |
Аудио#2: 48 kHz, AC3, 5.1, 640 Kbps | Оригинал | ENG |
скриншот  скриншот  скриншот  скриншот  скриншот  

General
Unique ID : 215405507599594775035078891875447914249 (0xA20D977B6F08A9FB1B0CAE6426C8BF09)
Complete name : D:Video111The.Mule.2018.BDRip.720p.seleZen.mkv
Format : Matroska
Format version : Version 4
File size : 6.22 GiB
Duration : 1 h 56 min
Overall bit rate : 7 643 kb/s
Movie name : The Mule 2018 from селезень
Encoded date : UTC 2019-04-24 18:54:18
Writing application : mkvmerge v32.0.0 ('Astral Progressions') 64-bit
Writing library : libebml v1.3.7 + libmatroska v1.5.0

Video
ID : 1
Format : AVC
Format/Info : Advanced Video Codec
Format profile : High@L4.1
Format settings : CABAC / 12 Ref Frames
Format settings, CABAC : Yes
Format settings, ReFrames : 12 frames
Codec ID : V_MPEG4/ISO/AVC
Duration : 1 h 56 min
Bit rate : 6 617 kb/s
Width : 1 280 pixels
Height : 536 pixels
Display aspect ratio : 2.40:1
Frame rate mode : Constant
Frame rate : 23.976 (24000/1001) FPS
Color space : YUV
Chroma subsampling : 4:2:0
Bit depth : 8 bits
Scan type : Progressive
Bits/(Pixel*Frame) : 0.402
Stream size : 5.38 GiB (87%)
Title : playHD
Writing library : x264 core 157 r2935 545de2f
Encoding settings : cabac=1 / ref=12 / deblock=1:-3:-3 / analyse=0x3:0x133 / me=umh / subme=10 / psy=1 / psy_rd=1.00:0.00 / mixed_ref=1 / me_range=32 / chroma_me=1 / trellis=2 / 8x8dct=1 / cqm=0 / deadzone=21,11 / fast_pskip=0 / chroma_qp_offset=-2 / threads=6 / lookahead_threads=1 / sliced_threads=0 / nr=0 / decimate=0 / interlaced=0 / bluray_compat=0 / constrained_intra=0 / bframes=11 / b_pyramid=2 / b_adapt=2 / b_bias=0 / direct=3 / weightb=1 / open_gop=0 / weightp=2 / keyint=250 / keyint_min=23 / scenecut=40 / intra_refresh=0 / rc=crf / mbtree=0 / crf=14.5 / qcomp=0.60 / qpmin=0 / qpmax=69 / qpstep=4 / ip_ratio=1.40 / pb_ratio=1.30 / aq=3:0.80
Language : English
Default : Yes
Forced : No

Audio #1
ID : 2
Format : AC-3
Format/Info : Audio Coding 3
Commercial name : Dolby Digital
Codec ID : A_AC3
Duration : 1 h 56 min
Bit rate mode : Constant
Bit rate : 384 kb/s
Channel(s) : 6 channels
Channel layout : L R C LFE Ls Rs
Sampling rate : 48.0 kHz
Frame rate : 31.250 FPS (1536 SPF)
Bit depth : 16 bits
Compression mode : Lossy
Stream size : 320 MiB (5%)
Title : iTunes
Language : Russian
Service kind : Complete Main
Default : Yes
Forced : Yes

Audio #2
ID : 3
Format : AC-3
Format/Info : Audio Coding 3
Commercial name : Dolby Digital
Codec ID : A_AC3
Duration : 1 h 56 min
Bit rate mode : Constant
Bit rate : 640 kb/s
Channel(s) : 6 channels
Channel layout : L R C LFE Ls Rs
Sampling rate : 48.0 kHz
Frame rate : 31.250 FPS (1536 SPF)
Bit depth : 16 bits
Compression mode : Lossy
Stream size : 533 MiB (8%)
Title : Original
Language : English
Service kind : Complete Main
Default : No
Forced : No

Text #1
ID : 4
Format : UTF-8
Codec ID : S_TEXT/UTF8
Codec ID/Info : UTF-8 Plain Text
Duration : 1 h 55 min
Bit rate : 5 b/s
Count of elements : 94
Stream size : 4.37 KiB (0%)
Title : Forced
Language : Russian
Default : Yes
Forced : Yes

Text #2
ID : 5
Format : UTF-8
Codec ID : S_TEXT/UTF8
Codec ID/Info : UTF-8 Plain Text
Duration : 1 h 55 min
Bit rate : 91 b/s
Count of elements : 1556
Stream size : 77.4 KiB (0%)
Title : Full
Language : Russian
Default : No
Forced : No

Text #3
ID : 6
Format : UTF-8
Codec ID : S_TEXT/UTF8
Codec ID/Info : UTF-8 Plain Text
Duration : 1 h 49 min
Bit rate : 58 b/s
Count of elements : 1647
Stream size : 47.2 KiB (0%)
Language : English
Default : No
Forced : No

Menu
00:00:00.000 : en:Chapter 1
00:06:45.822 : en:Chapter 2
00:15:27.885 : en:Chapter 3
00:23:24.236 : en:Chapter 4
00:32:22.482 : en:Chapter 5
00:40:29.886 : en:Chapter 6
00:48:20.564 : en:Chapter 7
00:57:55.347 : en:Chapter 8
01:07:17.408 : en:Chapter 9
01:16:17.364 : en:Chapter 10
01:23:18.785 : en:Chapter 11
01:32:20.160 : en:Chapter 12
01:39:12.947 : en:Chapter 13
01:46:17.580 : en:Chapter 14
01:48:52.443 : en:Chapter 15

pb.wtf



Скачать Наркокурьер через торрент http://img16.lostpic.net/2019/04/24/711182bc20ec672d026d870694f99984.jpg Скачать фильм Наркокурьер через торрент бесплантно в хорошем качестве Описание: Эрл Стоун - одинокий старик. Его частный бизнес находится на грани разорения, отношения с женой не ладятся, а дети, кажется, ... 9.8 10 18
Info! Золотая раздача, скачанное не засчитывается.
Торрент: Зарегистрирован [2019-04-24 19:07] · скачан: 875 раз
Статус: √ проверено
Размер: 6.22 GB
Как cкачать? Как скачать Наркокурьер через торрент | qTorrent

% Раздел Тема Автор DL S | L
Фильмы 2018 [DVDrip, WEB-DLRip, HDrip] (DUB, MVO) [ 2.16 GB ] Наркокурьер / The Mule [2018 BDRip-AVC] MVO [HDRezka Studio] - ExKinoRay Enigma2010 Скачать
2 | 0
Фильмы [HD 720p, 1080p] (Хороший звук DUB, MVO) [ 13.2 GB ] Наркокурьер / The Mule [2018 BDRip 1080p] bober100 Скачать
2 | 0
Фильмы 2018 [DVDrip, WEB-DLRip, HDrip] (DUB, MVO) [ 2.18 GB ] Наркокурьер / The Mule [2018 BDRip] - [] Twi7ter Скачать
7 | 0
Фильмы 2018 [DVDrip, WEB-DLRip, HDrip] (DUB, MVO) [ 710 MB ] Наркокурьер / The Mule [2018 HDRip "BD EUR"] coc900 Скачать
1 | 0
Фильмы 2018 [DVDrip, WEB-DLRip, HDrip] (DUB, MVO) [ 1.46 GB ] Наркокурьер / The Mule [2018 BDRip] - [] Twi7ter Скачать
9 | 0
Ultra HD (UHD: 2K, 4K, 8K) — видео сверхвысокой чёткости [ 54.25 GB ] Наркокурьер / The Mule [2018 UHD Blu-ray 2160p] DUB [] sheker187 Скачать
1 | 0
Ultra HD (UHD: 2K, 4K, 8K) — видео сверхвысокой чёткости [ 36.44 GB ] Наркокурьер / The Mule [2018 UHD BDRip 2160p] [SDR] DUB [] + AVO [Михаил Яроцкий] sheker187 Скачать
1 | 0

28-11-2019 20:33  

Отключить всю рекламу на сайте

18-05-2019 07:36 Наркокурьер Скачать торрент  

ошибки по всему ряду, на 20 мин подвисpb.wtf



    Дорогой пользователь! Огромная просьба, поблагодарите релизера, оцените раздачу и оставьте свои комментарий, если Вы скачали Наркокурьер через торрент бесплатно! Внесите свою лепту в развитие PiratBit!
    Комментировать посты могут только пользователи прошедшие не сложную регистрацию
    Показать сообщения:    

    Наркокурьер через торрент
    Скачать бесплатно Наркокурьер
    Наркокурьер скачать торрент
    Наркокурьер смотреть онлайн
    Cкачать фильм Наркокурьер бесплатно
    Наркокурьер скачать торрент в хорошем качестве
    Наркокурьер смотреть онлайн бесплатно в хорошем качестве


    Вы не можете начинать темы
    Вы не можете отвечать на сообщения
    Вы не можете редактировать свои сообщения
    Вы не можете удалять свои сообщения
    Вы не можете голосовать в опросах
    Вы не можете прикреплять файлы к сообщениям
    Вы можете скачивать файлы