Ссылка на приватное зеркало нашего сайта всего за 1$. Внимание количество ограничено!!!

2 сезон

iTunes

1 сезон

1

2 сезон

2 сезон

iTunes

1 сезон

RePack

30

Ultimate

ВАЖНО

ИГРА 18+

pack

RePack

MK11
pack

Забери бонус

RePack

jed

!!Акция!!

Alien_Rage

RePack

fifa19

RePack

Assassins Creed: Odyssey

RePack

NEED FOR SPEED™ PAYBACK

4 сезон

9 сезон

Бесстыжие 9 сезон

Все сериалы

все сериалы на PB.wtf

RePack

FAR CRY 5
  

Ты / You / Сезон: 1 / Серии: 1-10 из 10 (Маркос Сига) [2018, триллер, драма, криминал, WEBRip 720p] MVO [AlexFilm] pb.wtf

Ты через торрент pb.wtf

Размер: 9.02 GB | Добавлен: 1 год 7 мес. назад | Торрент скачан:29 раз
Скачать  

25-04-2019 02:00 Ты Скачать торрент  

Ты / You Год выпуска: 2018
Страна: США
Жанр: триллер, драма, криминал
Продолжительность: ~00:50:00
Перевод: профессиональное многоголосое закадровое | AlexFilm
Субтитры: нет

Режиссеры: Маркос Сига, Ли Толанд Кригер, Келли Сайрус

В ролях:

Пенн Бэджли, Элизабет Лэил, Лука Падован, Шэй Митчелл, Николь Кан, Кэтрин Галлахер, Зак Черри, Дэниэл Косгров, Виктория Картагена, Хари Неф.

Описание:

На что вы готовы ради любви? Когда успешный менеджер книжного магазина встречает талантливую начинающую писательницу, для него ответ очевиден: абсолютно на все. Используя соцсети, он узнает мельчайшие подробности о жизни девушки, чтобы подобраться к ней как можно ближе. Милая влюбленность перерастает в опасную одержимость. Парень готов тихо и методично устранить любое препятствие на пути к своей цели, даже если это препятствие — человек.

Релиз:

Перевод: Александра Елизарова
Монтаж и сведение звука: Андрей Губанов
Роли озвучивали:

Евгения Тихонова
Екатериана Муравицкая
Кирилл Патрино
Алексей Гнеушев
Михаил Федосеев



Качество: WEBRip 720p
Формат: MKV

Видео: 1280х640, 23.976 fps, MPEG-4 AVC ~2500 kbps avg, 0.127 bit/pixel
Аудио Rus: 48 kHz, AC3 2.0, ~192 kbps avg
Аудио Eng: 48 kHz, AC3 2.0, ~192 kbps avg


Реклама: аудио (два раза, в начале 10 и в конце 10 сек.)
скриншот  скриншот  скриншот  скриншот  
Формат : Matroska
Версия формата : Version 4 / Version 2
Размер файла : 992 Мбайт
Продолжительность : 48 м. 4 с.
Общий поток : 2885 Кбит/сек
Название фильма : You 1x01 @ AlexFilm
Дата кодирования : UTC 2018-09-23 18:48:53
Программа кодирования : mkvmerge v7.9.0 ('Birds') 64bit
Библиотека кодирования : libebml v1.3.1 + libmatroska v1.4.2

Видео
Идентификатор : 1
Формат : AVC
Формат/Информация : Advanced Video Codec
Профиль формата : High@L4.1
Параметр CABAC формата : Да
Параметр ReFrames формата : 4 кадра
Идентификатор кодека : V_MPEG4/ISO/AVC
Продолжительность : 48 м. 4 с.
Битрейт : 2500 Кбит/сек
Ширина : 1280 пикселей
Высота : 640 пикселей
Соотношение сторон : 2,000
Режим частоты кадров : Постоянный
Частота кадров : 23,976 (24000/1001) кадра/сек
Цветовое пространство : YUV
Субдискретизация насыщенности : 4:2:0
Битовая глубина : 8 бит
Тип развёртки : Прогрессивная
Бит/(Пиксели*Кадры) : 0.127
Размер потока : 859 Мбайт (87%)
Библиотека кодирования : x264 core 130 r2273 b3065e6
Настройки программы : cabac=1 / ref=3 / deblock=1:0:0 / analyse=0x3:0x113 / me=hex / subme=7 / psy=1 / psy_rd=1.00:0.00 / mixed_ref=1 / me_range=16 / chroma_me=1 / trellis=1 / 8x8dct=1 / cqm=0 / deadzone=21,11 / fast_pskip=1 / chroma_qp_offset=-2 / threads=6 / lookahead_threads=1 / sliced_threads=0 / nr=0 / decimate=1 / interlaced=0 / bluray_compat=0 / constrained_intra=0 / bframes=3 / b_pyramid=2 / b_adapt=1 / b_bias=0 / direct=1 / weightb=1 / open_gop=0 / weightp=2 / keyint=250 / keyint_min=23 / scenecut=40 / intra_refresh=0 / rc_lookahead=40 / rc=2pass / mbtree=1 / bitrate=2500 / ratetol=1.0 / qcomp=0.60 / qpmin=0 / qpmax=69 / qpstep=4 / cplxblur=20.0 / qblur=0.5 / ip_ratio=1.40 / aq=1:1.00
Default : Да
Forced : Нет

Аудио #1
Идентификатор : 2
Формат : AC-3
Формат/Информация : Audio Coding 3
Расширение режима : CM (complete main)
Параметр Endianness формата : Big
Идентификатор кодека : A_AC3
Продолжительность : 48 м. 4 с.
Вид битрейта : Постоянный
Битрейт : 192 Кбит/сек
Каналы : 2 канала
Расположение каналов : Front: L R
Частота : 48,0 КГц
Частота кадров : 31,250 кадров/сек (1536 spf)
Метод сжатия : С потерями
Размер потока : 66,0 Мбайт (7%)
Заголовок : DD2.0 AlexFilm
Язык : Russian
Default : Да
Forced : Нет

Аудио #2
Идентификатор : 3
Формат : AC-3
Формат/Информация : Audio Coding 3
Расширение режима : CM (complete main)
Параметр Endianness формата : Big
Идентификатор кодека : A_AC3
Продолжительность : 48 м. 4 с.
Вид битрейта : Постоянный
Битрейт : 192 Кбит/сек
Каналы : 2 канала
Расположение каналов : Front: L R
Частота : 48,0 КГц
Частота кадров : 31,250 кадров/сек (1536 spf)
Метод сжатия : С потерями
Размер потока : 66,0 Мбайт (7%)
Заголовок : DD2.0 Original
Язык : English
Default : Нет
Forced : Нет
Внимание! Раздача ведётся путём добавления новых серий; при каждом добавлении создаётся новый торрент. Чтобы начать докачку новой серии, пользователям необходимо сделать следующее:
(1) остановить скачивание,
(2) удалить старый торрент у себя из клиента (старые серии удалять не надо),
(3) скачать новый торрент и запустить его у себя в клиенте вместо старого, при этом указать клиенту путь в старую папку куда и должно происходить скачивание новых серий.
Ваш клиент при этом должен произвести хеширование (проверку) старой папки (если не производит сам - помогите ему сделать это), и будет докачивать только те серии которых у вас ещё нет. Старые серии при этом не удаляются, а продолжают раздаваться!
Eсли вы уже удалили старые серии, то предотвратить повторную закачку старых серий можно, отжав галочку в соответствующих местах при запуске нового торрента. По возможности, желательно не удалять старые серии как можно дольше чтобы релизёр не столько продолжал раздавать старые серии, а смог сконцентрироваться на новых.
pb.wtf



Скачать Ты через торрент http://i100.fastpic.ru/big/2018/0919/fc/59e2c0e802ea0f05d02d282b231119fc.jpg Скачать фильм Ты через торрент бесплантно в хорошем качестве Описание: На что вы готовы ради любви? Когда успешный менеджер книжного магазина встречает талантливую начинающую писательницу, для него ... 10 10 2
Торрент: Зарегистрирован [2019-04-25 02:00] · скачан: 29 раз
Статус: √ проверено
Размер: 9.02 GB
Как cкачать? Как скачать Ты через торрент | qTorrent

% Раздел Тема Автор DL S | L
Зарубежные сериалы [ 151.14 GB ] Ты - воплощение порока / Ты - отстой / You're The Worst / Сезон: 1-5 / Серии: 1-62 из 62 [2014-2019 WEB-DL 1080p] [MVO] killermax2013 Скачать
1 | 0
Зарубежные сериалы [ 27.65 GB ] Ты / You / Сезон: 1 / Серии 01-10 из 10 [2018 WEBRip 1080p] [MVO] killermax2013 Скачать
1 | 0
Зарубежные сериалы [ 19.19 GB ] Ты / You / Сезон: 2 / Серии: 1-10 из 10 [2019 WEB-DL 1080p] DUB [Пифагор / Netflix] bober100 Скачать
1 | 0
Зарубежные сериалы [ 7.18 GB ] Ты боишься темноты? / Are You Afraid of the Dark? / Сезон: 1 / Серии: 1-3 из 3 [2019 WEB-DL 1080p] MVO [TVShows] bober100 Скачать
1 | 0
Зарубежные сериалы [ 5.17 GB ] Ты / You / Сезон: 1 / Серии: 1-10 из 10 [2018 WEBRip] MVO [AlexFilm] bober100 Скачать
1 | 0
Зарубежные сериалы [ 5.34 GB ] Ты / You / Сезон: 1 / Серии: 1-10 из 10 [2018 WEBRip] MVO [Good People] bober100 Скачать
1 | 0
Зарубежные сериалы [ 9.16 GB ] Ты / You / Сезон: 1 / Серии 01-10 из 10 [2018 WEBRip 720p] [MVO] killermax2013 Скачать
1 | 0

28-11-2019 20:33  

Отключить всю рекламу на сайте

    Дорогой пользователь! Огромная просьба, поблагодарите релизера, оцените раздачу и оставьте свои комментарий, если Вы скачали Ты через торрент бесплатно! Внесите свою лепту в развитие PiratBit!
    Комментировать посты могут только пользователи прошедшие не сложную регистрацию
    Показать сообщения:    

    Ты через торрент
    Скачать бесплатно Ты
    Ты скачать торрент
    Ты смотреть онлайн
    Cкачать фильм Ты бесплатно
    Ты скачать торрент в хорошем качестве
    Ты смотреть онлайн бесплатно в хорошем качестве


    Вы не можете начинать темы
    Вы не можете отвечать на сообщения
    Вы не можете редактировать свои сообщения
    Вы не можете удалять свои сообщения
    Вы не можете голосовать в опросах
    Вы не можете прикреплять файлы к сообщениям
    Вы можете скачивать файлы