Ссылка на приватное зеркало всего за 1$. Внимание количество ограничено!!!

OK

1+1

iTunes

мы

OK

1

WEB-DLRip

Джокер

Пифагор

Ведьмак / The Witcher сериал

iTunes

ПШазам

ОК

Оно 2

iTunes

30
pack

Вам бонус

ВАЖНО

!!Акция!!

Alien_RageХит недели

RePack

Resident Evil 21

ИГРА 18+

pack

RePack

jed

RePack

fifa19

RePack

Assassins Creed: Odyssey

RePack

NEED FOR SPEED™ PAYBACK

4 сезон

9 сезон

Бесстыжие 9 сезон

Все сериалы

все сериалы на PB.wtf

RePack

FAR CRY 5
  

Омен: Перерождение / The Prodigy (Николас МакКарти) [2019, ужасы, триллер, WEB-DL 1080p] DUB [iTunes] pb.wtf

Омен: Перерождение через торрент pb.wtf

Раздают: 2 [ 0 KB/s ]
Размер: 4.71 GB | Добавлен: 9 мес. назад | Торрент скачан:1478 раз
Скачать  

25-04-2019 04:09 Омен: Перерождение Скачать торрент  

Омен: Перерождение / The Prodigy
Год выпуска: 2019
Страна: США, Гонконг
Жанр: ужасы, триллер
Продолжительность: 01:31:45
Перевод: Дублированный | iTunes
Субтитры: Английские

Режиссер: Николас МакКарти

rating

В ролях:

Тейлор Шиллинг, Джексон Роберт Скотт, Колм Фиор, Питер Муни, Пол Фото, Бриттани Аллен, Паула Бодро, Элиза Мулчерри, Олунике Аделийи, Джанет Лэнд

Описание:

История молодой матери, которая обеспокоена странным поведением своего восьмилетнего сына. Она считает, что причина такого поведения - нечто сверхъестественное.

Качество: WEB-DL 1080p
Формат: MKV

Видео: MPEG-4 AVC, 1920x800, 6324 Kbit/s, 23.976 fps
Аудио#1: 48 kHz, AC3, 5.1, 384 Kbps | iTunes | RUS |
Аудио#2: 48 kHz, E-AC3, 5.1, 640 Kbps | Оригинал | ENG |
скриншот  скриншот  скриншот  скриншот  скриншот  

General
Unique ID : 75355144625243937910937837911483540292 (0x38B0DF79A2534589AF5EA109AAF6E344)
Complete name : D:Video111The.Prodigy.2019.WEB-DL.1080p.seleZen.mkv
Format : Matroska
Format version : Version 4
File size : 4.71 GiB
Duration : 1 h 31 min
Overall bit rate : 7 350 kb/s
Movie name : The Prodigy 2019
Encoded date : UTC 2019-04-25 02:33:47
Writing application : mkvmerge v32.0.0 ('Astral Progressions') 64-bit
Writing library : libebml v1.3.7 + libmatroska v1.5.0

Video
ID : 1
Format : AVC
Format/Info : Advanced Video Codec
Format profile : High@L4
Format settings : CABAC / 4 Ref Frames
Format settings, CABAC : Yes
Format settings, ReFrames : 4 frames
Codec ID : V_MPEG4/ISO/AVC
Duration : 1 h 31 min
Bit rate mode : Constant
Bit rate : 6 324 kb/s
Nominal bit rate : 10 000 kb/s
Width : 1 920 pixels
Height : 800 pixels
Display aspect ratio : 2.40:1
Frame rate mode : Constant
Frame rate : 23.976 (24000/1001) FPS
Color space : YUV
Chroma subsampling : 4:2:0
Bit depth : 8 bits
Scan type : Progressive
Bits/(Pixel*Frame) : 0.172
Stream size : 4.05 GiB (86%)
Language : English
Default : Yes
Forced : No
Color range : Limited
Color primaries : BT.709
Transfer characteristics : BT.709
Matrix coefficients : BT.709

Audio #1
ID : 2
Format : AC-3
Format/Info : Audio Coding 3
Commercial name : Dolby Digital
Codec ID : A_AC3
Duration : 1 h 31 min
Bit rate mode : Constant
Bit rate : 384 kb/s
Channel(s) : 6 channels
Channel layout : L R C LFE Ls Rs
Sampling rate : 48.0 kHz
Frame rate : 31.250 FPS (1536 SPF)
Bit depth : 16 bits
Compression mode : Lossy
Stream size : 252 MiB (5%)
Title : iTunes
Language : Russian
Service kind : Complete Main
Default : Yes
Forced : Yes

Audio #2
ID : 3
Format : E-AC-3
Format/Info : Enhanced AC-3
Commercial name : Dolby Digital Plus
Codec ID : A_EAC3
Duration : 1 h 31 min
Bit rate mode : Constant
Bit rate : 640 kb/s
Channel(s) : 6 channels
Channel layout : L R C LFE Ls Rs
Sampling rate : 48.0 kHz
Frame rate : 31.250 FPS (1536 SPF)
Compression mode : Lossy
Stream size : 420 MiB (9%)
Title : Original
Language : English
Service kind : Complete Main
Default : No
Forced : No

Text #1
ID : 4
Format : UTF-8
Codec ID : S_TEXT/UTF8
Codec ID/Info : UTF-8 Plain Text
Duration : 1 h 31 min
Bit rate : 42 b/s
Count of elements : 1154
Stream size : 28.6 KiB (0%)
Title : Full
Language : English
Default : No
Forced : No

Text #2
ID : 5
Format : UTF-8
Codec ID : S_TEXT/UTF8
Codec ID/Info : UTF-8 Plain Text
Duration : 1 h 31 min
Bit rate : 42 b/s
Count of elements : 1154
Stream size : 28.6 KiB (0%)
Title : SDH
Language : English
Default : No
Forced : No

Menu
00:00:00.000 : en:1
00:10:06.000 : en:2
00:20:02.000 : en:3
00:33:59.000 : en:4
00:40:22.000 : en:5
00:50:15.000 : en:6
01:01:36.000 : en:7
01:09:53.000 : en:8
01:21:23.000 : en:9

pb.wtf



Скачать Омен: Перерождение через торрент http://img14.lostpic.net/2019/04/25/35c1f54a86c2138b0ece60fa9799b2b8.jpg Скачать фильм Омен: Перерождение через торрент бесплантно в хорошем качестве Описание: История молодой матери, которая обеспокоена странным поведением своего восьмилетнего сына. Она считает, что причина такого ... 10 10 29
Info! Золотая раздача, скачанное не засчитывается.
Торрент: Зарегистрирован [2019-04-25 04:09] · скачан: 1 478 раз
Статус: √ проверено
Размер: 4.71 GB
Как cкачать? Как скачать Омен: Перерождение через торрент | qTorrent

% Раздел Тема Автор DL S | L
Фильмы (HD 720p, 1080p) (48-60 fps) [ 10.1 GB ] Омен: Перерождение / The Prodigy [2019 BDRip 1080p 60 fps] sheker187 Скачать
1 | 0
Фильмы 2019-2020 [DVDrip, WEB-DLRip, HDrip] (DUB, MVO) [ 1.42 GB ] Омен: Перерождение / The Prodigy [2019 BDRip] - Twi7ter Скачать
44 | 2
Фильмы 2019-2020 [DVDrip, WEB-DLRip, HDrip] (DUB, MVO) [ 1.51 GB ] Омен: Перерождение / The Prodigy [2019 BDRip-AVC] - ExKinoRay Enigma2010 Скачать
22 | 1
Фильмы 2019-2020 [DVDrip, WEB-DLRip, HDrip] (DUB, MVO) [ 1.56 GB ] Омен: Перерождение / The Prodigy [2019 WEB-DLRip-AVC] - ExKinoRay Enigma2010 Скачать
15 | 1
Фильмы 2019-2020 [DVDrip, WEB-DLRip, HDrip] (DUB, MVO) [ 1.42 GB ] Омен: Перерождение / The Prodigy [2019 WEB-DLRip] bober100 Скачать
4 | 0

28-11-2019 20:33  

Отключить всю рекламу на сайте

25-04-2019 09:09 Омен: Перерождение Скачать торрент  

Ох помню как я пугался от сцен старого "Омена" будучи по младше так сказать)))pb.wtf



25-04-2019 10:36 Омен: Перерождение Скачать торрент  

Когда BD ждать?pb.wtf



25-04-2019 19:29 Омен: Перерождение Скачать торрент  

НИКАКОГО ОТНОШЕНИЯ К СЕМЬЕ ТОРНОВ, ЭТОТ ФИЛЬМ ОТНОШЕНИЯ НЕ ИМЕЕТ,АБСОЛЮТНО ДРУГОЙ СЮЖЕТ,РЕЛИЗЕРУ СПАСИБОpb.wtf



04-05-2019 05:55 Омен: Перерождение Скачать торрент  

Омэн давно уже в Кремле сидит.... pb.wtf



    Дорогой пользователь! Огромная просьба, поблагодарите релизера, оцените раздачу и оставьте свои комментарий, если Вы скачали Омен: Перерождение через торрент бесплатно! Внесите свою лепту в развитие PiratBit!
    Комментировать посты могут только пользователи прошедшие не сложную регистрацию
    Показать сообщения:    

    Омен: Перерождение через торрент
    Скачать бесплатно Омен: Перерождение
    Омен: Перерождение скачать торрент
    Омен: Перерождение смотреть онлайн
    Cкачать фильм Омен: Перерождение бесплатно
    Омен: Перерождение скачать торрент в хорошем качестве
    Омен: Перерождение смотреть онлайн бесплатно в хорошем качестве


    Вы не можете начинать темы
    Вы не можете отвечать на сообщения
    Вы не можете редактировать свои сообщения
    Вы не можете удалять свои сообщения
    Вы не можете голосовать в опросах
    Вы не можете прикреплять файлы к сообщениям
    Вы можете скачивать файлы