Ссылка на приватное зеркало всего за 1$. Внимание количество ограничено!!!

OK

1+1

iTunes

мы

OK

1

WEB-DLRip

Джокер

Пифагор

Ведьмак / The Witcher сериал

iTunes

ПШазам

ОК

Оно 2

iTunes

30
pack

Вам бонус

ВАЖНО

!!Акция!!

Alien_RageХит недели

RePack

Resident Evil 21

ИГРА 18+

pack

RePack

jed

RePack

fifa19

RePack

Assassins Creed: Odyssey

RePack

NEED FOR SPEED™ PAYBACK

4 сезон

9 сезон

Бесстыжие 9 сезон

Все сериалы

все сериалы на PB.wtf

RePack

FAR CRY 5
  

Медуза / Jellyfish (Джеймс Гарднер) [2018, драма, WEB-DL 720p] MVO ["Синема УС"] pb.wtf

Медуза через торрент pb.wtf

Размер: 4.05 GB | Добавлен: 8 мес. назад | Торрент скачан:6 раз
Скачать  

25-04-2019 16:58 Медуза Скачать торрент  

Медуза / JellyfishГод выпуска: 2018
Страна: Великобритания
Жанр: драма
Продолжительность: 01:41:20
Перевод: Любительский (многоголосый) | "Синема УС"
Субтитры: отсутствуют

Режиссер: Джеймс Гарднер

rating

В ролях:

Лив Хилл, Шинед Мэтьюз, Сирил Нри, Энгус Барнетт, Томос Имс, Виктория Олкок, Хелен Кеннеди, Генри Лиле, Джемима Ньюман, Коннор Миллс

Описание:

Главная героиня фильма, Сара, никогда не лезла за словом в карман. В какой-то момент она понимает, что её самое настоящее призвание - стэндап. Но реальность вносит свои коррективы.

Качество: WEB-DL 720p
Формат: MKV

Видео: h.264, 5 341 Кбит/с, 1280x688
Аудио: Русский, (AC3, 2 ch, 384 Кбит/с)
скриншот  скриншот  скриншот  

Общее
Уникальный идентификатор : 197104170126798906095247641221245865560 (0x9448E1E11AE1B299AE3AE2F67E768E58)
Полное имя : D:\Jellyfish.2O19.P.WEB-DL.72Op.mkv
Формат : Matroska
Версия формата : Version 2
Размер файла : 4,05 Гбайт
Продолжительность : 1 ч. 41 м.
Режим общего битрейта : Переменный
Общий поток : 5727 Кбит/сек
Дата кодирования : UTC 2019-04-25 00:30:39
Программа кодирования : mkvmerge v8.3.0 ('Over the Horizon') 64bit
Библиотека кодирования : libebml v1.3.1 + libmatroska v1.4.2

Видео
Идентификатор : 1
Формат : AVC
Формат/Информация : Advanced Video Codec
Профиль формата : High@L4.1
Параметр CABAC формата : Да
Параметр RefFrames формата : 4 кадра
Идентификатор кодека : V_MPEG4/ISO/AVC
Продолжительность : 1 ч. 41 м.
Вид битрейта : Переменный
Битрейт : 5341 Кбит/сек
Максимальный битрейт : 6000 Кбит/сек
Ширина : 1280 пикселей
Высота : 688 пикселей
Соотношение сторон : 1,85:1
Режим частоты кадров : Постоянный
Частота кадров : 23,976 (24000/1001) кадра/сек
Стандарт вещания : Component
Цветовое пространство : YUV
Субдискретизация насыщенности : 4:2:0
Битовая глубина : 8 бит
Тип развёртки : Прогрессивная
Бит/(Пиксели*Кадры) : 0.248
Размер потока : 3,70 Гбайт (91%)
Default : Да
Forced : Нет
Цветовой диапазон : Limited
Основные цвета : BT.709
Характеристики трансфера : BT.709
Коэффициенты матрицы : BT.709

Аудио
Идентификатор : 2
Формат : AC-3
Формат/Информация : Audio Coding 3
Расширение режима : CM (complete main)
Параметр Endianness формата : Big
Идентификатор кодека : A_AC3
Продолжительность : 1 ч. 41 м.
Вид битрейта : Постоянный
Битрейт : 384 Кбит/сек
Каналы : 2 канала
Расположение каналов : Front: L R
Частота : 48,0 КГц
Частота кадров : 31,250 кадров/сек (1536 spf)
Метод сжатия : С потерями
Размер потока : 278 Мбайт (7%)
Default : Да
Forced : Нет

pb.wtf



Скачать Медуза через торрент https://a.radikal.ru/a07/1904/37/b7ab3d03f303.jpg Скачать фильм Медуза через торрент бесплантно в хорошем качестве Описание: Главная героиня фильма, Сара, никогда не лезла за словом в карман. В какой-то момент она понимает, что её самое настоящее ... 10 10 3
Торрент: Зарегистрирован [2019-04-25 16:58] · скачан: 6 раз
Статус: T временная
Размер: 4.05 GB
Как cкачать? Как скачать Медуза через торрент | qTorrent

% Раздел Тема Автор DL S | L
T Фильмы (мультфильмы) cо спонсором показа (Новинки AVI/MKV) [ 1.37 GB ] Медуза / Jellyfish [2018 WEB-DLRip] MVO ["Синема УС"] bober100 Скачать
1 | 0
National Geographic [ 481 MB ] Monster Jellyfish/ National Geographic. Медузы-монстры [2010 Документальный IPTVRip] VintMosina Скачать
1 | 0
National Geographic [ 351 MB ] Нашествие медуз\Jellyfish invasion [2007 Документальный SATRip] VintMosina Скачать
1 | 0

28-11-2019 20:33  

Отключить всю рекламу на сайте

    Дорогой пользователь! Огромная просьба, поблагодарите релизера, оцените раздачу и оставьте свои комментарий, если Вы скачали Медуза через торрент бесплатно! Внесите свою лепту в развитие PiratBit!
    Комментировать посты могут только пользователи прошедшие не сложную регистрацию
    Показать сообщения:    

    Медуза через торрент
    Скачать бесплатно Медуза
    Медуза скачать торрент
    Медуза смотреть онлайн
    Cкачать фильм Медуза бесплатно
    Медуза скачать торрент в хорошем качестве
    Медуза смотреть онлайн бесплатно в хорошем качестве


    Вы не можете начинать темы
    Вы не можете отвечать на сообщения
    Вы не можете редактировать свои сообщения
    Вы не можете удалять свои сообщения
    Вы не можете голосовать в опросах
    Вы не можете прикреплять файлы к сообщениям
    Вы можете скачивать файлы