Ссылка на приватное зеркало всего за 1$. Внимание количество ограничено!!!

OK

1+1

iTunes

мы

OK

1

WEB-DLRip

Джокер

Пифагор

Ведьмак / The Witcher сериал

iTunes

ПШазам

ОК

Оно 2

iTunes

30
pack

Вам бонус

ВАЖНО

!!Акция!!

Alien_RageХит недели

RePack

Resident Evil 21

ИГРА 18+

pack

RePack

jed

RePack

fifa19

RePack

Assassins Creed: Odyssey

RePack

NEED FOR SPEED™ PAYBACK

4 сезон

9 сезон

Бесстыжие 9 сезон

Все сериалы

все сериалы на PB.wtf

RePack

FAR CRY 5
  

Смотрите как мы танцуем / Voyez comme on danse (Мишель Блан) [2018, драма, комедия, BDRip 720p] MVO ["Синема УС"] pb.wtf

Смотрите как мы танцуем через торрент pb.wtf

Размер: 4.42 GB | Добавлен: 9 мес. назад | Торрент скачан:10 раз
Скачать  

25-04-2019 17:24 Смотрите как мы танцуем Скачать торрент  

Смотрите как мы танцуем / Voyez comme on danse Год выпуска: 2018
Страна: Франция
Жанр: драма, комедия
Продолжительность: 01:28:46
Перевод: Любительский (многоголосый) | "Синема УС"
Субтитры: отсутствуют

Режиссер: Мишель Блан

rating

В ролях: Карин Вьяр, Кароль Буке, Шарлотта Рэмплинг, Жан-Поль Рув, Уилльям Лебхил, Жак Дютрон, Мишель Блан, Гийом Лаббе, Жанн Гитте, Сара Мартинс

Описание: Пока Жульен мучается от мании преследования, что очень раздражает его жену Люси, их сын Алекс узнает, что его несовершеннолетняя подруга Эва неожиданно забеременела. Оказавшаяся на мели Веро, мать Эвы, не уверенна, что сможет прокормить внука в будущем. Элизабет узнает, куда пропал ее муж Бертран, только когда их дом обыскивают. Меж тем, Серена, любовница Жульена, чувствует, что он ее обманывает. И только Лоик, сын Веро, кажется самым уравновешенным из всех.

Качество: BDRip 720p
Формат: MKV

Видео: h.264,6 531 Кбит/с, 1280x688
Аудио#1: Русский (AC3, 2 ch, 448 Кбит/с)
скриншот  скриншот  скриншот  

Общее
Уникальный идентификатор : 231733647583223583711922604016403003718 (0xAE5646F00AEE53419F8FF5D83628B946)
Полное имя : D:\Voyez.Comme.on.Danse.2018.P.BDRip.72Op.mkv
Формат : Matroska
Версия формата : Version 2
Размер файла : 4,42 Гбайт
Продолжительность : 1 ч. 28 м.
Режим общего битрейта : Переменный
Общий поток : 7121 Кбит/сек
Дата кодирования : UTC 2019-04-25 02:13:23
Программа кодирования : mkvmerge v8.3.0 ('Over the Horizon') 64bit
Библиотека кодирования : libebml v1.3.1 + libmatroska v1.4.2

Видео
Идентификатор : 1
Формат : AVC
Формат/Информация : Advanced Video Codec
Профиль формата : High@L4.1
Параметр CABAC формата : Да
Параметр RefFrames формата : 4 кадра
Идентификатор кодека : V_MPEG4/ISO/AVC
Продолжительность : 1 ч. 28 м.
Вид битрейта : Переменный
Битрейт : 6531 Кбит/сек
Максимальный битрейт : 7500 Кбит/сек
Ширина : 1280 пикселей
Высота : 688 пикселей
Соотношение сторон : 1,85:1
Режим частоты кадров : Постоянный
Частота кадров : 23,976 (24000/1001) кадра/сек
Стандарт вещания : Component
Цветовое пространство : YUV
Субдискретизация насыщенности : 4:2:0
Битовая глубина : 8 бит
Тип развёртки : Прогрессивная
Бит/(Пиксели*Кадры) : 0.309
Размер потока : 4,05 Гбайт (92%)
Default : Да
Forced : Нет
Цветовой диапазон : Limited
Основные цвета : BT.709
Характеристики трансфера : BT.709
Коэффициенты матрицы : BT.709

Аудио
Идентификатор : 2
Формат : AC-3
Формат/Информация : Audio Coding 3
Расширение режима : CM (complete main)
Параметр Endianness формата : Big
Идентификатор кодека : A_AC3
Продолжительность : 1 ч. 28 м.
Вид битрейта : Постоянный
Битрейт : 448 Кбит/сек
Каналы : 2 канала
Расположение каналов : Front: L R
Частота : 48,0 КГц
Частота кадров : 31,250 кадров/сек (1536 spf)
Метод сжатия : С потерями
Размер потока : 284 Мбайт (6%)
Default : Да
Forced : Нет

pb.wtf



Скачать Смотрите как мы танцуем через торрент https://a.radikal.ru/a14/1904/d0/68768fa1494e.jpg Скачать фильм Смотрите как мы танцуем через торрент бесплантно в хорошем качестве Описание: Пока Жульен мучается от мании преследования, что очень раздражает его жену Люси, их сын Алекс узнает, что его несовершеннолетняя ... 10 10 3
Торрент: Зарегистрирован [2019-04-25 17:24] · скачан: 10 раз
Статус: # сомнительно
Размер: 4.42 GB
Как cкачать? Как скачать Смотрите как мы танцуем через торрент | qTorrent

% Раздел Тема Автор DL S | L
T Фильмы (мультфильмы) cо спонсором показа (Новинки AVI/MKV) [ 1.37 GB ] Смотрите как мы танцуем / Voyez comme on danse [2018 HDRip] MVO ["Синема УС"] bober100 Скачать
1 | 0

28-11-2019 20:33  

Отключить всю рекламу на сайте

    Дорогой пользователь! Огромная просьба, поблагодарите релизера, оцените раздачу и оставьте свои комментарий, если Вы скачали Смотрите как мы танцуем через торрент бесплатно! Внесите свою лепту в развитие PiratBit!
    Комментировать посты могут только пользователи прошедшие не сложную регистрацию
    Показать сообщения:    

    Смотрите как мы танцуем через торрент
    Скачать бесплатно Смотрите как мы танцуем
    Смотрите как мы танцуем скачать торрент
    Смотрите как мы танцуем смотреть онлайн
    Cкачать фильм Смотрите как мы танцуем бесплатно
    Смотрите как мы танцуем скачать торрент в хорошем качестве
    Смотрите как мы танцуем смотреть онлайн бесплатно в хорошем качестве


    Вы не можете начинать темы
    Вы не можете отвечать на сообщения
    Вы не можете редактировать свои сообщения
    Вы не можете удалять свои сообщения
    Вы не можете голосовать в опросах
    Вы не можете прикреплять файлы к сообщениям
    Вы можете скачивать файлы