Ссылка на приватное зеркало всего за 1$. Внимание количество ограничено!!!

OK

1+1

iTunes

мы

OK

1

WEB-DLRip

Джокер

Пифагор

Ведьмак / The Witcher сериал

Лицензия

ПШазам

ОК

Оно 2

iTunes

30
pack

Вам бонус

ВАЖНО

!!Акция!!

Alien_RageХит недели

RePack

Resident Evil 21

ИГРА 18+

pack

RePack

jed

!!Акция!!

Alien_Rage

RePack

fifa19

RePack

Assassins Creed: Odyssey

RePack

NEED FOR SPEED™ PAYBACK

4 сезон

9 сезон

Бесстыжие 9 сезон

Все сериалы

все сериалы на PB.wtf

RePack

FAR CRY 5
  

Потерянные и изгнанные / Lost & Turnt Out (Рашин Вашингтон) [2017, драма, криминал, WEB-DL 720p] MVO ["Синема УС"] pb.wtf

Потерянные и изгнанные через торрент pb.wtf

Размер: 2.8 GB | Добавлен: 8 мес. назад | Торрент скачан:13 раз
Скачать  

25-04-2019 17:49 Потерянные и изгнанные Скачать торрент  

Потерянные и изгнанные / Lost & Turnt OutГод выпуска: 2017
Страна: США
Жанр: драма, криминал
Продолжительность: 01:11:13
Перевод: Любительский (многоголосый) | "Синема УС"
Субтитры: отсутствуют

Режиссер: Рашин Вашингтон

rating

В ролях: Седес Бэби, Лил Бэнкхед, Айша Браун, Маркус Чейз, Дана Коллинз, Намир Диас, Намыр Диас, Кирквуд Дженерал, Тайри Флай Тай Ингрэм, Риз Камилле

Описание: Молодая девушка в поисках больших денег переезжает из Майами в Атланту и оказывается вовлечена в страшную и опасную ночную жизнь.

Качество: WEB-DL 720p
Формат: MKV

Видео: h.264,5 233 Кбит/с, 1280x720
Аудио: Русский, (AC3, 2 ch, 384 Кбит/с)
скриншот  скриншот  скриншот  

Общее
Уникальный идентификатор : 181931952327213022046198485598984480001 (0x88DED1C99FA04BE19555873247382501)
Полное имя : D:\Lost.and.turnt.out.2017.P.WEB-DL.72Op.mkv
Формат : Matroska
Версия формата : Version 2
Размер файла : 2,80 Гбайт
Продолжительность : 1 ч. 11 м.
Режим общего битрейта : Переменный
Общий поток : 5618 Кбит/сек
Дата кодирования : UTC 2019-04-25 03:45:56
Программа кодирования : mkvmerge v8.3.0 ('Over the Horizon') 64bit
Библиотека кодирования : libebml v1.3.1 + libmatroska v1.4.2

Видео
Идентификатор : 1
Формат : AVC
Формат/Информация : Advanced Video Codec
Профиль формата : High@L4.1
Параметр CABAC формата : Да
Параметр RefFrames формата : 4 кадра
Идентификатор кодека : V_MPEG4/ISO/AVC
Продолжительность : 1 ч. 11 м.
Вид битрейта : Переменный
Битрейт : 5233 Кбит/сек
Максимальный битрейт : 6000 Кбит/сек
Ширина : 1280 пикселей
Высота : 720 пикселей
Соотношение сторон : 16:9
Режим частоты кадров : Постоянный
Частота кадров : 23,976 (24000/1001) кадра/сек
Стандарт вещания : Component
Цветовое пространство : YUV
Субдискретизация насыщенности : 4:2:0
Битовая глубина : 8 бит
Тип развёртки : Прогрессивная
Бит/(Пиксели*Кадры) : 0.232
Размер потока : 2,55 Гбайт (91%)
Default : Да
Forced : Нет
Цветовой диапазон : Limited
Основные цвета : BT.709
Характеристики трансфера : BT.709
Коэффициенты матрицы : BT.709

Аудио
Идентификатор : 2
Формат : AC-3
Формат/Информация : Audio Coding 3
Расширение режима : CM (complete main)
Параметр Endianness формата : Big
Идентификатор кодека : A_AC3
Продолжительность : 1 ч. 11 м.
Вид битрейта : Постоянный
Битрейт : 384 Кбит/сек
Каналы : 2 канала
Расположение каналов : Front: L R
Частота : 48,0 КГц
Частота кадров : 31,250 кадров/сек (1536 spf)
Метод сжатия : С потерями
Размер потока : 196 Мбайт (7%)
Default : Да
Forced : Нет

pb.wtf



Скачать Потерянные и изгнанные через торрент https://b.radikal.ru/b39/1904/74/3971df53dbec.jpg Скачать фильм Потерянные и изгнанные через торрент бесплантно в хорошем качестве Описание: Молодая девушка в поисках больших денег переезжает из Майами в Атланту и оказывается вовлечена в страшную и опасную ночную ... 10 10 2
Торрент: Зарегистрирован [2019-04-25 17:49] · скачан: 13 раз
Статус: T временная
Размер: 2.8 GB
Как cкачать? Как скачать Потерянные и изгнанные через торрент | qTorrent

28-11-2019 20:33  

Отключить всю рекламу на сайте


    Дорогой пользователь! Огромная просьба, поблагодарите релизера, оцените раздачу и оставьте свои комментарий, если Вы скачали Потерянные и изгнанные через торрент бесплатно! Внесите свою лепту в развитие PiratBit!
    Комментировать посты могут только пользователи прошедшие не сложную регистрацию
    Показать сообщения:    

    Потерянные и изгнанные через торрент
    Скачать бесплатно Потерянные и изгнанные
    Потерянные и изгнанные скачать торрент
    Потерянные и изгнанные смотреть онлайн
    Cкачать фильм Потерянные и изгнанные бесплатно
    Потерянные и изгнанные скачать торрент в хорошем качестве
    Потерянные и изгнанные смотреть онлайн бесплатно в хорошем качестве


    Вы не можете начинать темы
    Вы не можете отвечать на сообщения
    Вы не можете редактировать свои сообщения
    Вы не можете удалять свои сообщения
    Вы не можете голосовать в опросах
    Вы не можете прикреплять файлы к сообщениям
    Вы можете скачивать файлы