Ссылка на приватное зеркало всего за 1$. Внимание количество ограничено!!!

OK

1+1

iTunes

мы

OK

1

WEB-DLRip

Джокер

Пифагор

Ведьмак / The Witcher сериал

iTunes

ПШазам

ОК

Оно 2

iTunes

30
pack

Вам бонус

ВАЖНО

!!Акция!!

Alien_RageХит недели

RePack

Resident Evil 21

ИГРА 18+

pack

RePack

jed

RePack

fifa19

RePack

Assassins Creed: Odyssey

RePack

NEED FOR SPEED™ PAYBACK

4 сезон

9 сезон

Бесстыжие 9 сезон

Все сериалы

все сериалы на PB.wtf

RePack

FAR CRY 5
  

Мистер Резник / Mr. Cleaver (Ник Вендельсдорф) [2018, Ужасы, WEBRip 720p] MVO ["Синема УС"] pb.wtf

Мистер Резник через торрент pb.wtf

Размер: 2.46 GB | Добавлен: 9 мес. назад | Торрент скачан:7 раз
Скачать  

25-04-2019 18:05 Мистер Резник Скачать торрент  

Мистер Резник / Mr. CleaverГод выпуска: 2018
Страна: США
Жанр: Ужасы
Продолжительность: 01:15:41
Перевод: Любительский (многоголосый) | "Синема УС"
Субтитры: отсутствуют

Режиссер: Ник Вендельсдорф

rating

В ролях: Дуайт Бейкер, Данило А. Даниэль, Патрик Донахью, Брайан Догерти, Йен Энрикез, Александра Геро, Тед Джонсон, Сара Корда, Шеннон Лэрк, Розмари Масьель

Описание: Молодую девушку по имени Кристал с детства преследуют страшные видения и образы о жестокой кончине окружающих ее людей. Без крова и средств к существованию, она подрабатывает гадалкой прямо на улице, а в свободное время тусуется с местной шпаной. Как-то раз, несмотря на дурное предчувствие, Кристал соглашается на уговоры друзей и пробирается вместе с ними в давно заброшенный склад. Но веселая ночка в мгновение ока превращается в ночной кошмар, когда на них открывает охоту жадный до крови и обладающий сверхъестественными силами владелец.

Качество: WEBRip 720p
Формат: MKV

Видео: h.264,4 261 Кбит/с, 1280x720
Аудио: Русский, (AC3, 2 ch, 384 Кбит/с)
скриншот  скриншот  скриншот  

Общее
Уникальный идентификатор : 221193916359009895440140795171279713799 (0xA668661169E0F96AAC5F074E6077B607)
Полное имя : D:\Mr.Cleaver.2018.P.WEBRip.72Op.mkv
Формат : Matroska
Версия формата : Version 2
Размер файла : 2,46 Гбайт
Продолжительность : 1 ч. 15 м.
Режим общего битрейта : Переменный
Общий поток : 4647 Кбит/сек
Дата кодирования : UTC 2019-04-25 02:19:09
Программа кодирования : mkvmerge v8.3.0 ('Over the Horizon') 64bit
Библиотека кодирования : libebml v1.3.1 + libmatroska v1.4.2

Видео
Идентификатор : 1
Формат : AVC
Формат/Информация : Advanced Video Codec
Профиль формата : High@L4.1
Параметр CABAC формата : Да
Параметр RefFrames формата : 4 кадра
Идентификатор кодека : V_MPEG4/ISO/AVC
Продолжительность : 1 ч. 15 м.
Вид битрейта : Переменный
Битрейт : 4261 Кбит/сек
Максимальный битрейт : 5000 Кбит/сек
Ширина : 1280 пикселей
Высота : 720 пикселей
Соотношение сторон : 16:9
Режим частоты кадров : Постоянный
Частота кадров : 23,976 (24000/1001) кадра/сек
Стандарт вещания : Component
Цветовое пространство : YUV
Субдискретизация насыщенности : 4:2:0
Битовая глубина : 8 бит
Тип развёртки : Прогрессивная
Бит/(Пиксели*Кадры) : 0.189
Размер потока : 2,20 Гбайт (90%)
Default : Да
Forced : Нет
Цветовой диапазон : Limited
Основные цвета : BT.709
Характеристики трансфера : BT.709
Коэффициенты матрицы : BT.709

Аудио
Идентификатор : 2
Формат : AC-3
Формат/Информация : Audio Coding 3
Расширение режима : CM (complete main)
Параметр Endianness формата : Big
Идентификатор кодека : A_AC3
Продолжительность : 1 ч. 15 м.
Вид битрейта : Постоянный
Битрейт : 384 Кбит/сек
Каналы : 2 канала
Расположение каналов : Front: L R
Частота : 48,0 КГц
Частота кадров : 31,250 кадров/сек (1536 spf)
Метод сжатия : С потерями
Размер потока : 208 Мбайт (8%)
Default : Да
Forced : Нет

pb.wtf



Скачать Мистер Резник через торрент https://d.radikal.ru/d22/1904/46/8fd2611721dc.jpg Скачать фильм Мистер Резник через торрент бесплантно в хорошем качестве Описание: Молодую девушку по имени Кристал с детства преследуют страшные видения и образы о жестокой кончине окружающих ее людей. Без крова ... 10 10 4
Торрент: Зарегистрирован [2019-04-25 18:05] · скачан: 7 раз
Статус: T временная
Размер: 2.46 GB
Как cкачать? Как скачать Мистер Резник через торрент | qTorrent

% Раздел Тема Автор DL S | L
T Фильмы (мультфильмы) cо спонсором показа (Новинки AVI/MKV) [ 1.37 GB ] Мистер Резник / Mr. Cleaver [2018 WEBRip] MVO ["Синема УС"] bober100 Скачать
1 | 0

28-11-2019 20:33  

Отключить всю рекламу на сайте

    Дорогой пользователь! Огромная просьба, поблагодарите релизера, оцените раздачу и оставьте свои комментарий, если Вы скачали Мистер Резник через торрент бесплатно! Внесите свою лепту в развитие PiratBit!
    Комментировать посты могут только пользователи прошедшие не сложную регистрацию
    Показать сообщения:    

    Мистер Резник через торрент
    Скачать бесплатно Мистер Резник
    Мистер Резник скачать торрент
    Мистер Резник смотреть онлайн
    Cкачать фильм Мистер Резник бесплатно
    Мистер Резник скачать торрент в хорошем качестве
    Мистер Резник смотреть онлайн бесплатно в хорошем качестве


    Вы не можете начинать темы
    Вы не можете отвечать на сообщения
    Вы не можете редактировать свои сообщения
    Вы не можете удалять свои сообщения
    Вы не можете голосовать в опросах
    Вы не можете прикреплять файлы к сообщениям
    Вы можете скачивать файлы