Ссылка на приватное зеркало нашего сайта всего за 1$. Внимание количество ограничено!!!

2 сезон

iTunes

1 сезон

1

2 сезон

2 сезон

iTunes

1 сезон

RePack

30

Ultimate

ВАЖНО

ИГРА 18+

pack

RePack

MK11
pack

Забери бонус

RePack

jed

!!Акция!!

Alien_Rage

RePack

fifa19

RePack

Assassins Creed: Odyssey

RePack

NEED FOR SPEED™ PAYBACK

4 сезон

9 сезон

Бесстыжие 9 сезон

Все сериалы

все сериалы на PB.wtf

RePack

FAR CRY 5
  

Ограбление по-английски / High Heels and Low Lifes (Мэл Смит) [2001, Боевик, Криминал, Комедия, HDTVRip 720p] [MVO] pb.wtf

Ограбление по-английски через торрент pb.wtf

Размер: 4.27 GB | Добавлен: 1 год 7 мес. назад | Торрент скачан:38 раз
Скачать  

25-04-2019 18:38 Ограбление по-английски Скачать торрент  


Ограбление по-английски
High Heels and Low Lifes


Год выпуска: 2001
Производство: Touchstone Pictures, High Heels Productions Limited, Fragile Films
Страна: США, Великобритания
Жанр: Боевик, Криминал, Комедия
Продолжительность: 01:22:15
Перевод: Профессиональный (многоголосый закадровый)

Режиссер: Мэл Смит / Mel Smith

В ролях: Минни Драйвер, Мэри МакКормак, Кевин МакНэлли, Марк Уильямс, Дэнни Дайер, Майкл Гэмбон, Даррен Бойд, Саймон Скардифилд, Лен Коллин, Джейн Патридж

Описание: Когда собираешься украсть десять миллионов долларов, любая непредвиденная случайность может стоить слишком дорого. А тем более две непредвиденные случайности — в лице актрисы Фрэнсис и ее взбалмошной подружки, медсестры Шеннон.

Случайно узнав о видах группы лондонских бандитов на чужие $10 000 000, они безрассудно собрались шантажировать этих опасных парней с целью отхватить свой «кусочек пирога». Большая ошибка для дамочек, знакомых с такими делами только по фильмам. Но еще большая ошибка для самих жуликов, которые неосмотрительно решили, что могут легко избавиться от настырных дилетанток!

rating

Качество:HDTVRip 720p
Формат: Matroska
Видео: x264, 1280x688, 6843 Kbps at 23.976 fps
Аудио №1: Russian: 48 kHz, AC3 5.1 @ 384 kbps |Многоголосный закадровый|
Аудио №3: English, 48 kHz, AC3 5.1 @ 384 kbps |Оригинал|
Субтитры: нет
General
Complete name : G:\HD\Криминал\Ограбление по-английски (High Heels and Low Lifes).2001.HDTVRip.720p.-nevermnd.mkv
Format : Matroska
File size : 4.27 GiB
Duration : 1h 22mn
Overall bit rate : 7 427 Kbps
Movie name : by nevermnd
Encoded date : UTC 2011-02-19 17:37:37
Writing application : mkvmerge v4.4.0 ('Die Wiederkehr') сборка от Dec 25 2010 23:32:50
Writing library : libebml v1.0.0 + libmatroska v1.0.0

Video
ID : 1
Format : AVC
Format/Info : Advanced Video Codec
Format profile : High@L4.1
Format settings, CABAC : Yes
Format settings, ReFrames : 8 frames
Codec ID : V_MPEG4/ISO/AVC
Duration : 1h 22mn
Bit rate : 6 511 Kbps
Nominal bit rate : 6 843 Kbps
Width : 1 280 pixels
Height : 688 pixels
Display aspect ratio : 1.860
Frame rate : 25.000 fps
Color space : YUV
Chroma subsampling : 4:2:0
Bit depth : 8 bits
Scan type : Progressive
Bits/(Pixel*Frame) : 0.296
Stream size : 3.74 GiB (88%)
Writing library : x264 core 112 r1867 22bfd31
Encoding settings : cabac=1 / ref=8 / deblock=1:0:0 / analyse=0x3:0x113 / me=umh / subme=10 / psy=1 / psy_rd=1.00:0.00 / mixed_ref=1 / me_range=48 / chroma_me=1 / trellis=2 / 8x8dct=1 / cqm=0 / deadzone=21,11 / fast_pskip=1 / chroma_qp_offset=-2 / threads=9 / sliced_threads=0 / nr=0 / decimate=1 / interlaced=0 / constrained_intra=0 / bframes=3 / b_pyramid=2 / b_adapt=2 / b_bias=0 / direct=1 / weightb=1 / open_gop=0 / weightp=2 / keyint=250 / keyint_min=25 / scenecut=40 / intra_refresh=0 / rc_lookahead=50 / rc=2pass / mbtree=1 / bitrate=6843 / ratetol=1.0 / qcomp=0.60 / qpmin=0 / qpmax=51 / qpstep=4 / cplxblur=20.0 / qblur=0.5 / vbv_maxrate=6843 / vbv_bufsize=2500 / nal_hrd=none / ip_ratio=1.40 / aq=1:1.00
Language : English

Audio #1
ID : 2
Format : AC-3
Format/Info : Audio Coding 3
Mode extension : CM (complete main)
Codec ID : A_AC3
Duration : 1h 22mn
Bit rate mode : Constant
Bit rate : 384 Kbps
Channel(s) : 6 channels
Channel positions : Front: L C R, Side: L R, LFE
Sampling rate : 48.0 KHz
Bit depth : 16 bits
Compression mode : Lossy
Stream size : 226 MiB (5%)
Title : AC3 5.1 @ 384 kbps |Многоголосный закадровый|
Language : Russian

Audio #2
ID : 3
Format : AC-3
Format/Info : Audio Coding 3
Mode extension : CM (complete main)
Codec ID : A_AC3
Duration : 1h 22mn
Bit rate mode : Constant
Bit rate : 384 Kbps
Channel(s) : 6 channels
Channel positions : Front: L C R, Side: L R, LFE
Sampling rate : 48.0 KHz
Bit depth : 16 bits
Compression mode : Lossy
Stream size : 226 MiB (5%)
Title : AC3 5.1 @ 384 kbps |Оригинал|
Language : English
x264 [info]: frame I:1652 Avg QP:13.84 size:138571
x264 [info]: frame P:35895 Avg QP:15.99 size: 61509
x264 [info]: frame B:85833 Avg QP:19.31 size: 19455


скриншот  скриншот  скриншот  
pb.wtf



Скачать Ограбление по-английски через торрент https://i109.fastpic.ru/big/2019/0425/df/d185583138a1efbc2c1f62822e390bdf.jpg Скачать фильм Ограбление по-английски через торрент бесплантно в хорошем качестве Описание: Когда собираешься украсть десять миллионов долларов, любая непредвиденная случайность может стоить слишком дорого. А тем более ... 10 10 2
Торрент: Зарегистрирован [2019-04-25 18:38] · скачан: 38 раз
Статус: √ проверено
Размер: 4.27 GB
Как cкачать? Как скачать Ограбление по-английски через торрент | qTorrent

28-11-2019 20:33  

Отключить всю рекламу на сайте

    Дорогой пользователь! Огромная просьба, поблагодарите релизера, оцените раздачу и оставьте свои комментарий, если Вы скачали Ограбление по-английски через торрент бесплатно! Внесите свою лепту в развитие PiratBit!
    Комментировать посты могут только пользователи прошедшие не сложную регистрацию
    Показать сообщения:    

    Ограбление по-английски через торрент
    Скачать бесплатно Ограбление по-английски
    Ограбление по-английски скачать торрент
    Ограбление по-английски смотреть онлайн
    Cкачать фильм Ограбление по-английски бесплатно
    Ограбление по-английски скачать торрент в хорошем качестве
    Ограбление по-английски смотреть онлайн бесплатно в хорошем качестве


    Вы не можете начинать темы
    Вы не можете отвечать на сообщения
    Вы не можете редактировать свои сообщения
    Вы не можете удалять свои сообщения
    Вы не можете голосовать в опросах
    Вы не можете прикреплять файлы к сообщениям
    Вы можете скачивать файлы