2 сезон

iTunes

MVO

1

2 сезон

iTunes

iTunes

1 сезон

RePack

30

Ultimate

ВАЖНО

ИГРА 18+

pack

RePack

MK11
pack

Легкие деньги

RePack

jed

RePack

fifa19

RePack

RDR2

RePack

NEED FOR SPEED™ PAYBACK

4 сезон

9 сезон

Бесстыжие 9 сезон

Все сериалы

все сериалы на PB.wtf

RePack

FAR CRY 5

Anonymous, доброй ночи, мы не успеваем собрать деньги на оплату серверов за декабрь и январь, помогите нам пожалуйста в это трудное время. В качестве благодарности мы отключим Вам всю рекламу на сайте (укажите свой ник в строку Ваше имя)!

×
  
Magnet ссылка

Черная полоса / Fleuve noir (Эрик Зонка) [2017, триллер, драма, криминал, BDRip 720p, 60 fps] Дубляж [iTunes] pb.wtf

Черная полоса через торрент pb.wtf

Размер: 11.07 GB | Добавлен: 1 год 9 мес. назад | Торрент скачан:37 раз
Скачать  

26-04-2019 01:57 Черная полоса Скачать торрент  

Черная полоса / Fleuve noir«Когда правда страшнее лжи»

Год выпуска: 2017
Страна: Франция, Бельгия
Жанр: триллер, драма, криминал, детектив
Продолжительность: 01:53:30
Перевод: Дублированный | iTunes
Субтитры: Отсутствуют
Режиссер: Эрик Зонка
В ролях:

Венсан Кассель (François Visconti), Ромен Дюрис (Yann Bellaile), Сандрин Киберлэн (Solange Arnault), Элоди Буше (Lola Bellaile), Шарль Берлинг (Marc), Афсиа Эрзи (Chérifa), Жером Пули (Raphaël Arnault), Феликс Бак (Denis Visconti), Лорена Телье (Marie Arnalut), Стефан Войтович (Franck), Редда Терки (Eddy), Стефан Кашлен (Anthony)
Описание:
Комиссар Франсуа Висконти, видавший виды полицейский, расследует, на первый взгляд, рутинное дело, связанное с исчезновением подростка Дэни Арно. Комиссару кажутся подозрительными все: и сексапильная мать, и немногословный громила-отец, и даже школьный учитель Ян Беллэль, неожиданно предложивший полицейскому свою помощь в поисках. Следствие петляет от подозреваемого к подозреваемому, но никаких следов подростка нет, и шансов найти его живым все меньше и меньше.
Рейтинг:

Качество: BDRip 720p
Формат: MKV
Видео: AVC | 1280 x 536 (2.388) | 59.940 fps | 11.4 Мбит/сек
Аудио #1: AC-3 | 5.1 | 48 kHz | 384 Кбит/сек | 16 bit | Дубляж (iTunes) | RUS |
Аудио #2: AC-3 | 5.1 | 48 kHz | 384 Кбит/сек | 16 bit | MVO (iTunes) | UKR |
Аудио #3: DTS-HD MA | 5.1 | 48 kHz | 1509 Кбит/сек | 24 bit | Original - French |
Навигация по главам: есть

General
Unique ID : 28450877482917231097551330220005532838 (0x1567708F72B69E0D13D7BA3811A224A6)
Complete name : D:\2018 Черная полоса BDRip 720p 60 fps.mkv
Format : Matroska
Format version : Version 4 / Version 2
File size : 11.1 GiB
Duration : 1h 53mn
Overall bit rate mode : Variable
Overall bit rate : 14.0 Mbps
Movie name : Черная полоса / Fleuve Noir
Encoded date : UTC 2019-03-10 07:56:28
Writing application : mkvmerge v22.0.0 ('At The End Of The World') 64-bit
Writing library : libebml v1.3.5 + libmatroska v1.4.8
DURATION : 01:53:30.229000000
NUMBER_OF_FRAMES : 638459
NUMBER_OF_BYTES : 2728213392
_STATISTICS_WRITING_APP : mkvmerge v22.0.0 ('At The End Of The World') 64-bit
_STATISTICS_WRITING_DATE_UTC : 2019-03-10 07:56:28
_STATISTICS_TAGS : BPS DURATION NUMBER_OF_FRAMES NUMBER_OF_BYTES
Video #1
ID : 1
Format : AVC
Format/Info : Advanced Video Codec
Format profile : High@L4.1
Format settings, CABAC : Yes
Format settings, ReFrames : 8 frames
Codec ID : V_MPEG4/ISO/AVC
Duration : 1h 53mn
Bit rate : 11.4 Mbps
Nominal bit rate : 10 000 Kbps
Width : 1 280 pixels
Height : 536 pixels
Display aspect ratio : 2.40:1
Frame rate : 59.940 fps
Color space : YUV
Chroma subsampling : 4:2:0
Bit depth : 8 bits
Scan type : Progressive
Bits/(Pixel*Frame) : 0.276
Stream size : 9.00 GiB (81%)
Writing library : x264 core 146 r2538 121396c
Encoding settings : cabac=1 / ref=8 / deblock=1:-2:-2 / analyse=0x3:0x113 / me=umh / subme=9 / psy=1 / psy_rd=1.00:0.25 / mixed_ref=1 / me_range=32 / chroma_me=1 / trellis=2 / 8x8dct=1 / cqm=0 / deadzone=6,6 / fast_pskip=1 / chroma_qp_offset=-4 / threads=12 / lookahead_threads=2 / sliced_threads=0 / nr=0 / decimate=0 / interlaced=0 / bluray_compat=0 / constrained_intra=0 / bframes=3 / b_pyramid=2 / b_adapt=2 / b_bias=0 / direct=3 / weightb=1 / open_gop=0 / weightp=2 / keyint=600 / keyint_min=60 / scenecut=40 / intra_refresh=0 / rc_lookahead=60 / rc=2pass / mbtree=1 / bitrate=10000 / ratetol=1.0 / qcomp=0.80 / qpmin=0 / qpmax=69 / qpstep=4 / cplxblur=20.0 / qblur=0.5 / vbv_maxrate=50000 / vbv_bufsize=50000 / nal_hrd=none / filler=0 / ip_ratio=1.10 / aq=1:0.50
Language : English
Default : Yes
Forced : No
DURATION : 01:53:30.154000000
NUMBER_OF_FRAMES : 408201
NUMBER_OF_BYTES : 8496433166
_STATISTICS_WRITING_APP : mkvmerge v22.0.0 ('At The End Of The World') 64-bit
_STATISTICS_WRITING_DATE_UTC : 2019-03-10 07:56:28
_STATISTICS_TAGS : BPS DURATION NUMBER_OF_FRAMES NUMBER_OF_BYTES
Audio #2
ID : 2
Format : AC-3
Format/Info : Audio Coding 3
Mode extension : CM (complete main)
Format settings, Endianness : Big
Codec ID : A_AC3
Duration : 1h 53mn
Bit rate mode : Constant
Bit rate : 384 Kbps
Channel(s) : 6 channels
Channel positions : Front: L C R, Side: L R, LFE
Sampling rate : 48.0 KHz
Bit depth : 16 bits
Compression mode : Lossy
Stream size : 312 MiB (3%)
Title : DUB (iTunes)
Language : Russian
Default : Yes
Forced : No
Audio #3
ID : 3
Format : AC-3
Format/Info : Audio Coding 3
Mode extension : CM (complete main)
Format settings, Endianness : Big
Codec ID : A_AC3
Duration : 1h 53mn
Bit rate mode : Constant
Bit rate : 384 Kbps
Channel(s) : 6 channels
Channel positions : Front: L C R, Side: L R, LFE
Sampling rate : 48.0 KHz
Bit depth : 16 bits
Compression mode : Lossy
Stream size : 312 MiB (3%)
Title : MVO (iTunes)
Language : Ukrainian
Default : No
Forced : No
Audio #4
ID : 4
Format : DTS
Format/Info : Digital Theater Systems
Format profile : MA / Core
Codec ID : A_DTS
Duration : 1h 53mn
Bit rate mode : Variable
Bit rate : 1 561 Kbps / 1 510 Kbps
Channel(s) : 6 channels
Channel positions : Front: L C R, Side: L R, LFE
Sampling rate : 48.0 KHz
Bit depth : 24 bits
Compression mode : Lossless / Lossy
Language : French
Default : No
Forced : No
Menu
00:00:00.000 : fr:Chapter 1
00:11:00.326 : fr:Chapter 2
00:21:04.596 : fr:Chapter 3
00:29:31.936 : fr:Chapter 4
00:40:24.296 : fr:Chapter 5
00:54:07.869 : fr:Chapter 6
01:03:48.866 : fr:Chapter 7
01:15:23.143 : fr:Chapter 8
01:23:46.688 : fr:Chapter 9
01:33:18.676 : fr:Chapter 10
01:44:21.463 : fr:Chapter 11
01:51:24.094 : fr:Chapter 12
01:53:30.178 : fr:Chapter 13
pb.wtf



Скачать Черная полоса через торрент https://c.radikal.ru/c34/1904/14/38e503ea281f.png Скачать фильм Черная полоса через торрент бесплантно в хорошем качестве Описание: Комиссар Франсуа Висконти, видавший виды полицейский, расследует, на первый взгляд, рутинное дело, связанное с исчезновением ... 10 10 5
Торрент: Зарегистрирован [2019-04-26 01:57] · скачан: 37 раз
Статус: √ проверено
Размер: 11.07 GB
Как cкачать? Как скачать Черная полоса через торрент | UTorrent

% Раздел Тема Автор DL S | L
Фильмы 2018 [DVDrip, WEB-DLRip, HDrip] (DUB, MVO) [ 1.41 GB ] Чёрная полоса / Fleuve noir / Black Tide [2018 BDRip] bober100 Скачать
1 | 0
Фильмы 2018 [DVDrip, WEB-DLRip, HDrip] (DUB, MVO) [ 1.41 GB ] Чёрная полоса / Fleuve noir / Black Tide [2018 BDRip] - Twi7ter Скачать
1 | 0
Фильмы [HD 720p, 1080p] (Хороший звук DUB, MVO) [ 5.67 GB ] Чёрная полоса / Fleuve noir / Black Tide [2018 BDRip 720p] DUB bober100 Скачать
1 | 0
Фильмы [HD 720p, 1080p] (Хороший звук DUB, MVO) [ 9.05 GB ] Чёрная полоса / Fleuve noir / Black Tide [2018 BDRip 1080p] DUB bober100 Скачать
1 | 0
Фильмы (Blu-ray, BD-Remux, HDDVD) [ 32.08 GB ] Чёрная полоса / Fleuve noir / Black Tide [2018 BD Remux 1080p] DUB bober100 Скачать
1 | 0

28-11-2019 20:33  

Отключить всю рекламу на сайте

    Дорогой пользователь! Огромная просьба, поблагодарите релизера, оцените раздачу и оставьте свои комментарий, если Вы скачали Черная полоса через торрент бесплатно! Внесите свою лепту в развитие PiratBit!
    Комментировать посты могут только пользователи прошедшие не сложную регистрацию
    Показать сообщения:    

    Черная полоса через торрент
    Скачать бесплатно Черная полоса
    Черная полоса скачать торрент
    Черная полоса смотреть онлайн
    Cкачать фильм Черная полоса бесплатно
    Черная полоса скачать торрент в хорошем качестве
    Черная полоса смотреть онлайн бесплатно в хорошем качестве


    Вы не можете начинать темы
    Вы не можете отвечать на сообщения
    Вы не можете редактировать свои сообщения
    Вы не можете удалять свои сообщения
    Вы не можете голосовать в опросах
    Вы не можете прикреплять файлы к сообщениям
    Вы можете скачивать файлы