Marvel's Avengers Deluxe Edition (супер цена) 159р. Внимание количество ограничено!!!

2 сезон

iTunes

iTunes

1

iTunes

iTunes

iTunes

WEBRip

iTunes

30
pack

Новость дня

ВАЖНО

!!Акция!!

Alien_RageХит недели

RePack

Horizon Zero Dawn

ИГРА 18+

pack

RePack

jed

!!Акция!!

Alien_Rage

RePack

fifa19

RePack

Assassins Creed: Odyssey

RePack

NEED FOR SPEED™ PAYBACK

4 сезон

9 сезон

Бесстыжие 9 сезон

Все сериалы

все сериалы на PB.wtf

RePack

FAR CRY 5
  

Трасса 318 / 318 hao gong lu (Не Юньсин) [2017, драма, WEB-DL 720p] MVO ["Синема УС"] pb.wtf

Трасса 318 через торрент pb.wtf

Размер: 3.95 GB | Добавлен: 1 год 4 мес. назад | Торрент скачан:7 раз
Скачать  

26-04-2019 03:52 Трасса 318 Скачать торрент  

Трасса 318 / 318 hao gong luГод выпуска: 2017
Страна: Китай
Жанр: драма
Продолжительность: 01:40:46
Перевод: Любительский (многоголосый) | "Синема УС"
Субтитры: отсутствуют

Режиссер: Не Юньсин

rating

В ролях: Децзи, Юэ Синь

Описание: Протянувшаяся более чем на 5 000 киллометров трасса 318 соединяет Китай и Тибет, и является одним из самых живописных маршрутов в мире. Именно на этой трассе однажды встречаются китаянка Сяоцзя и тибетка Суона. Обе они отправляются в это длинное путешествие по разным причинам, но у них есть кое-что общее: они обе верят, что это поможет им искупить ошибки прошлого.

Качество: WEB-DL 720p
Формат: MKV

Видео: h.264, 5 229 Кбит/с, 1280x720
Аудио: Русский, (AC3, 2 ch, 384 Кбит/с)
скриншот  скриншот  скриншот  

Общее
Уникальный идентификатор : 211751678139055971405647053120976464320 (0x9F4DE3C7FB43E0B3A151E228EBB029C0)
Полное имя : D:\Highway.318.2017.Pk.WEB-DL.72Op.mkv
Формат : Matroska
Версия формата : Version 2
Размер файла : 3,95 Гбайт
Продолжительность : 1 ч. 40 м.
Режим общего битрейта : Переменный
Общий поток : 5614 Кбит/сек
Дата кодирования : UTC 2019-04-25 02:16:40
Программа кодирования : mkvmerge v8.3.0 ('Over the Horizon') 64bit
Библиотека кодирования : libebml v1.3.1 + libmatroska v1.4.2

Видео
Идентификатор : 1
Формат : AVC
Формат/Информация : Advanced Video Codec
Профиль формата : High@L4.1
Параметр CABAC формата : Да
Параметр RefFrames формата : 4 кадра
Идентификатор кодека : V_MPEG4/ISO/AVC
Продолжительность : 1 ч. 40 м.
Вид битрейта : Переменный
Битрейт : 5229 Кбит/сек
Максимальный битрейт : 6000 Кбит/сек
Ширина : 1280 пикселей
Высота : 720 пикселей
Соотношение сторон : 16:9
Режим частоты кадров : Постоянный
Частота кадров : 23,976 (24000/1001) кадра/сек
Стандарт вещания : Component
Цветовое пространство : YUV
Субдискретизация насыщенности : 4:2:0
Битовая глубина : 8 бит
Тип развёртки : Прогрессивная
Бит/(Пиксели*Кадры) : 0.232
Размер потока : 3,60 Гбайт (91%)
Default : Да
Forced : Нет
Цветовой диапазон : Limited
Основные цвета : BT.709
Характеристики трансфера : BT.709
Коэффициенты матрицы : BT.709

Аудио
Идентификатор : 2
Формат : AC-3
Формат/Информация : Audio Coding 3
Расширение режима : CM (complete main)
Параметр Endianness формата : Big
Идентификатор кодека : A_AC3
Продолжительность : 1 ч. 40 м.
Вид битрейта : Постоянный
Битрейт : 384 Кбит/сек
Каналы : 2 канала
Расположение каналов : Front: L R
Частота : 48,0 КГц
Частота кадров : 31,250 кадров/сек (1536 spf)
Метод сжатия : С потерями
Размер потока : 277 Мбайт (7%)
Default : Да
Forced : Нет

pb.wtf



Скачать Трасса 318 через торрент https://a.radikal.ru/a26/1904/82/d249dcf79426.jpg Скачать фильм Трасса 318 через торрент бесплантно в хорошем качестве Описание: Протянувшаяся более чем на 5 000 киллометров трасса 318 соединяет и Тибет, и является одним из самых живописных маршрутов в ... 10 10 4
Торрент: Зарегистрирован [2019-04-26 03:52] · скачан: 7 раз
Статус: T временная
Размер: 3.95 GB
Как cкачать? Как скачать Трасса 318 через торрент | qTorrent

% Раздел Тема Автор DL S | L
T Фильмы (мультфильмы) cо спонсором показа (Новинки AVI/MKV) [ 1.37 GB ] Трасса 318 / 318 hao gong lu [2017 WEB-DLRip] MVO ["Синема УС"] bober100 Скачать
1 | 0

28-11-2019 20:33  

Отключить всю рекламу на сайте

    Дорогой пользователь! Огромная просьба, поблагодарите релизера, оцените раздачу и оставьте свои комментарий, если Вы скачали Трасса 318 через торрент бесплатно! Внесите свою лепту в развитие PiratBit!
    Комментировать посты могут только пользователи прошедшие не сложную регистрацию
    Показать сообщения:    

    Трасса 318 через торрент
    Скачать бесплатно Трасса 318
    Трасса 318 скачать торрент
    Трасса 318 смотреть онлайн
    Cкачать фильм Трасса 318 бесплатно
    Трасса 318 скачать торрент в хорошем качестве
    Трасса 318 смотреть онлайн бесплатно в хорошем качестве


    Вы не можете начинать темы
    Вы не можете отвечать на сообщения
    Вы не можете редактировать свои сообщения
    Вы не можете удалять свои сообщения
    Вы не можете голосовать в опросах
    Вы не можете прикреплять файлы к сообщениям
    Вы можете скачивать файлы