Ссылка на приватное зеркало всего за 1$. Внимание количество ограничено!!!

OK

1+1

iTunes

мы

OK

1

WEB-DLRip

Джокер

Пифагор

Ведьмак / The Witcher сериал

iTunes

ПШазам

ОК

Оно 2

iTunes

30
pack

Вам бонус

ВАЖНО

!!Акция!!

Alien_RageХит недели

RePack

Resident Evil 21

ИГРА 18+

pack

RePack

jed

RePack

fifa19

RePack

Assassins Creed: Odyssey

RePack

NEED FOR SPEED™ PAYBACK

4 сезон

9 сезон

Бесстыжие 9 сезон

Все сериалы

все сериалы на PB.wtf

RePack

FAR CRY 5
  

Клоун Восьмёрка / 8 Ball Clown (Александр Шелл) [2018, Ужасы, WEB-DL 720p] MVO ["Синема УС"] pb.wtf

Клоун Восьмёрка через торрент pb.wtf

Размер: 4.19 GB | Добавлен: 9 мес. назад | Торрент скачан:13 раз
Скачать  

26-04-2019 04:36 Клоун Восьмёрка Скачать торрент  

Клоун Восьмёрка / 8 Ball ClownГод выпуска: 2018
Страна: США
Жанр: Ужасы
Продолжительность: 01:43:47
Перевод: Любительский (многоголосый) | "Синема УС"
Субтитры: отсутствуют

Режиссер: Александр Шелл

rating

В ролях: Анатолий Быстриков, Маршалл Эвер, Джон Фирман, Анита Фостер, Джейкоб Леду, Бернард Лесан, Тиа Линкольн, Мелани Рукман, Александр Шелл, Кристин Шелл

Описание: Зависимый от героина клоун пытается закончить жизнь самоубийством и прекратить свои страдания, но у него не получается, поэтому он выслеживает детей, которые постоянно звонят ему, и "играет" с ними в свои больные игры.

Качество: WEB-DL 720p
Формат: MKV

Видео: H.264, 5 395 Кбит/с, 1280x720
Аудио#1: Русский, (AC3, 2 ch, 384 Кбит/с)
скриншот  скриншот  скриншот  

Общее
Уникальный идентификатор : 200920201723052984819718045398748716881 (0x9727D2C355C0DABF8AB17D70C4F15F51)
Полное имя : D:\8.Ball.Clown.2018.P.WEB-DL.72Op.mkv
Формат : Matroska
Версия формата : Version 2
Размер файла : 4,19 Гбайт
Продолжительность : 1 ч. 43 м.
Режим общего битрейта : Переменный
Общий поток : 5781 Кбит/сек
Дата кодирования : UTC 2019-04-25 00:33:56
Программа кодирования : mkvmerge v8.3.0 ('Over the Horizon') 64bit
Библиотека кодирования : libebml v1.3.1 + libmatroska v1.4.2

Видео
Идентификатор : 1
Формат : AVC
Формат/Информация : Advanced Video Codec
Профиль формата : High@L4.1
Параметр CABAC формата : Да
Параметр RefFrames формата : 4 кадра
Идентификатор кодека : V_MPEG4/ISO/AVC
Продолжительность : 1 ч. 43 м.
Вид битрейта : Переменный
Битрейт : 5395 Кбит/сек
Максимальный битрейт : 6000 Кбит/сек
Ширина : 1280 пикселей
Высота : 720 пикселей
Соотношение сторон : 16:9
Режим частоты кадров : Постоянный
Частота кадров : 23,976 (24000/1001) кадра/сек
Стандарт вещания : Component
Цветовое пространство : YUV
Субдискретизация насыщенности : 4:2:0
Битовая глубина : 8 бит
Тип развёртки : Прогрессивная
Бит/(Пиксели*Кадры) : 0.239
Размер потока : 3,83 Гбайт (91%)
Default : Да
Forced : Нет
Цветовой диапазон : Limited
Основные цвета : BT.709
Характеристики трансфера : BT.709
Коэффициенты матрицы : BT.709

Аудио
Идентификатор : 2
Формат : AC-3
Формат/Информация : Audio Coding 3
Расширение режима : CM (complete main)
Параметр Endianness формата : Big
Идентификатор кодека : A_AC3
Продолжительность : 1 ч. 43 м.
Вид битрейта : Постоянный
Битрейт : 384 Кбит/сек
Каналы : 2 канала
Расположение каналов : Front: L R
Частота : 48,0 КГц
Частота кадров : 31,250 кадров/сек (1536 spf)
Метод сжатия : С потерями
Размер потока : 285 Мбайт (7%)
Default : Да
Forced : Нет

pb.wtf



Скачать Клоун Восьмёрка через торрент https://d.radikal.ru/d35/1904/bd/581446e6f6c3.jpg Скачать фильм Клоун Восьмёрка через торрент бесплантно в хорошем качестве Описание: Зависимый от героина клоун пытается закончить жизнь самоубийством и прекратить свои страдания, но у него не получается, поэтому ... 7.8 10 4
Торрент: Зарегистрирован [2019-04-26 04:36] · скачан: 13 раз
Статус: T временная
Размер: 4.19 GB
Как cкачать? Как скачать Клоун Восьмёрка через торрент | qTorrent

% Раздел Тема Автор DL S | L
T Фильмы (мультфильмы) cо спонсором показа (Новинки AVI/MKV) [ 1.46 GB ] Клоун Восьмёрка / 8 Ball Clown [2018 WEB-DLRip] MVO ["Синема УС"] bober100 Скачать
1 | 0

28-11-2019 20:33  

Отключить всю рекламу на сайте

26-04-2019 11:55 Клоун Восьмёрка Скачать торрент  

Однозначно шедевр ))) Чего только одно описание стоит))pb.wtf



    Дорогой пользователь! Огромная просьба, поблагодарите релизера, оцените раздачу и оставьте свои комментарий, если Вы скачали Клоун Восьмёрка через торрент бесплатно! Внесите свою лепту в развитие PiratBit!
    Комментировать посты могут только пользователи прошедшие не сложную регистрацию
    Показать сообщения:    

    Клоун Восьмёрка через торрент
    Скачать бесплатно Клоун Восьмёрка
    Клоун Восьмёрка скачать торрент
    Клоун Восьмёрка смотреть онлайн
    Cкачать фильм Клоун Восьмёрка бесплатно
    Клоун Восьмёрка скачать торрент в хорошем качестве
    Клоун Восьмёрка смотреть онлайн бесплатно в хорошем качестве


    Вы не можете начинать темы
    Вы не можете отвечать на сообщения
    Вы не можете редактировать свои сообщения
    Вы не можете удалять свои сообщения
    Вы не можете голосовать в опросах
    Вы не можете прикреплять файлы к сообщениям
    Вы можете скачивать файлы