новый адрес
Ссылка на приватное зеркало всего за 1$. Внимание количество ограничено!!!

iTunes

1+1

iTunes

мы

WEB-DL

1

iTunes

Чернобыль

iTunes

Ральф против интернета

Лицензия

ПШазам

Лицензия

Оно 2

Лицензия

30
pack

Вам бонус

ВАЖНО

!!Акция!!

Alien_RageХит недели

RePack

Resident Evil 21

ИГРА 18+

pack

RePack

jed

!!Акция!!

Alien_Rage

RePack

fifa19

RePack

Assassins Creed: Odyssey

RePack

NEED FOR SPEED™ PAYBACK

3 сезон

9 сезон

Бесстыжие 9 сезон

Все сериалы

все сериалы на PB.wtf

RePack

FAR CRY 5
Ребята, катастрофически не хватает 1900р. для оплаты серверов за Октябрь (всвязи с блокировками трафик упал в 3 раза), 1-2р., выручайте.
  

Водяная (Алексей Барыкин) [2019, фэнтези, детский, WEB-DL 1080p] pb.wtf

Водяная через торрент pb.wtf

Раздают: 2 [ 195 KB/s ]
Размер: 3.74 GB | Добавлен: 7 мес. назад | Торрент скачан:87 раз
Скачать  

26-04-2019 04:53 Водяная Скачать торрент  

ВодянаяГод выпуска: 2019
Страна: Россия
Жанр: фэнтези, детский
Продолжительность: 01:25:46
Перевод: Не требуется
Субтитры: отсутствуют

Режиссер: Алексей Барыкин



В ролях:

Николай Невзоров, Екатерина Барыкина, Нафиса Хайруллина, Ильдус Габдрахманов, Гузель Шакирзянова, Фанис Зиганшин, Юлия Захарова

Описание:

Двое детей, брат и сестра, приезжают в гости к родственникам в отдаленную деревню. Темной ночью их мать похищает Водяная — страшная ведьма, которая живет в озере.

Качество: WEB-DL 1080p
Формат: MKV

Видео: h.264,6 090 Кбит/с, 1920x804
Аудио: Русский, (AC3, 2 ch, 384 Кбит/с)
скриншот  скриншот  скриншот  

Общее
Уникальный идентификатор : 210701901427217787213505449089275213786 (0x9E83B5CB110DAA528816AC04275F37DA)
Полное имя : D:\Vodyanaya.2O19.O.WEB-DL.1O8Op.mkv
Формат : Matroska
Версия формата : Version 2
Размер файла : 3,74 Гбайт
Продолжительность : 1 ч. 22 м.
Режим общего битрейта : Переменный
Общий поток : 6476 Кбит/сек
Дата кодирования : UTC 2019-04-24 20:16:35
Программа кодирования : mkvmerge v8.3.0 ('Over the Horizon') 64bit
Библиотека кодирования : libebml v1.3.1 + libmatroska v1.4.2

Видео
Идентификатор : 2
Формат : AVC
Формат/Информация : Advanced Video Codec
Профиль формата : High@L4.1
Параметр CABAC формата : Да
Параметр RefFrames формата : 4 кадра
Идентификатор кодека : V_MPEG4/ISO/AVC
Продолжительность : 1 ч. 22 м.
Вид битрейта : Переменный
Битрейт : 6090 Кбит/сек
Максимальный битрейт : 6900 Кбит/сек
Ширина : 1920 пикселей
Высота : 804 пикселя
Соотношение сторон : 2,40:1
Режим частоты кадров : Постоянный
Частота кадров : 23,976 (24000/1001) кадра/сек
Стандарт вещания : Component
Цветовое пространство : YUV
Субдискретизация насыщенности : 4:2:0
Битовая глубина : 8 бит
Тип развёртки : Прогрессивная
Бит/(Пиксели*Кадры) : 0.161
Размер потока : 3,45 Гбайт (92%)
Default : Да
Forced : Нет
Цветовой диапазон : Limited
Основные цвета : BT.709
Характеристики трансфера : BT.709
Коэффициенты матрицы : BT.709

Аудио
Идентификатор : 1
Формат : AC-3
Формат/Информация : Audio Coding 3
Расширение режима : CM (complete main)
Параметр Endianness формата : Big
Идентификатор кодека : A_AC3
Продолжительность : 1 ч. 22 м.
Вид битрейта : Постоянный
Битрейт : 384 Кбит/сек
Каналы : 2 канала
Расположение каналов : Front: L R
Частота : 48,0 КГц
Частота кадров : 31,250 кадров/сек (1536 spf)
Метод сжатия : С потерями
Размер потока : 227 Мбайт (6%)
Default : Да
Forced : Нет

pb.wtf



Скачать Водяная через торрент https://a.radikal.ru/a13/1903/2b/ffd2e4299238.jpg Скачать фильм Водяная через торрент бесплантно в хорошем качестве Описание: Двое детей, брат и сестра, приезжают в гости к родственникам в отдаленную деревню. Темной ночью их мать похищает Водяная — ... 10 10 8
Торрент: Зарегистрирован [2019-04-26 04:53] · скачан: 87 раз
Статус: T временная
Размер: 3.74 GB
Как cкачать? Как скачать Водяная через торрент | qTorrent

% Раздел Тема Автор DL S | L
T Наши фильмы (мультфильмы) cо спонсором показа (Новинки AVI/MKV) [ 3.33 GB ] Водяная [2019 детский WEB-DL 720p] bober100 Скачать
1 | 0
Детские отечественные фильмы [ 1.38 GB ] Водяная [2019 детский WEB-DLRip] bober100 Скачать
1 | 0
Кино СССР [ 372 MB ] Водяной [1961 СССР короткометражка SATRip-AVC от AVP Studio] AVP Studio Скачать
1 | 0
Кино СССР [ 372 MB ] Водяной [1961 СССР короткометражка SATRip от AVP Studio] AVP Studio Скачать
1 | 0
Фантастика [ 949 MB ] Паоло Бачигалупи - Водяной нож [Евгений Перепелица 2018 128 kbps MP3] bober100 Скачать
1 | 0
T Фильмы 2015 [DVDrip, WEB-DLRip, HDrip] [ 1.38 GB ] Баба Джун / Baba Joon [2015 HDRip Любительский одноголосый [Александр Водяной] PsYcho Скачать
1 | 0
Ужасы, Мистика [ 114 MB ] Желание [2016 Классика аудиокнига MP3 320kbps Водяной Александр] Magnat Скачать
2 | 0

28-11-2019 20:33  

Отключить всю рекламу на сайте

    Дорогой пользователь! Огромная просьба, поблагодарите релизера, оцените раздачу и оставьте свои комментарий, если Вы скачали Водяная через торрент бесплатно! Внесите свою лепту в развитие PiratBit!
    Комментировать посты могут только пользователи прошедшие не сложную регистрацию
    Показать сообщения:    

    Водяная через торрент
    Скачать бесплатно Водяная
    Водяная скачать торрент
    Водяная смотреть онлайн
    Cкачать фильм Водяная бесплатно
    Водяная скачать торрент в хорошем качестве
    Водяная смотреть онлайн бесплатно в хорошем качестве


    Вы не можете начинать темы
    Вы не можете отвечать на сообщения
    Вы не можете редактировать свои сообщения
    Вы не можете удалять свои сообщения
    Вы не можете голосовать в опросах
    Вы не можете прикреплять файлы к сообщениям
    Вы можете скачивать файлы