MEGA SALE -50% FORZA HORIZON 4 ULTIMATE+ВСЕ DLC+ОНЛАЙН всего за 599р. 299 руб. (супер цена). Внимание количество ограничено!!!

iTunes

1+1

iTunes

мы

iTunes

1

iTunes

Чернобыль

iTunes

Ральф против интернета

Лицензия

ПШазам

Лицензия

Игра престолов

Лицензия

30
pack

ВАЖНО

!!Акция!!

Alien_RageХит недели

RePack

Resident Evil 21

ИГРА 18+

pack

RePack

Metro:Exodus

!!Акция!!

Alien_Rage

RePack

fifa19

RePack

Assassins Creed: Odyssey

RePack

NEED FOR SPEED™ PAYBACK

3 сезон

9 сезон

Бесстыжие 9 сезон

Все сериалы

все сериалы на PB.wtf

RePack

FAR CRY 5
Ребята, катастрофически не хватает 7730р. для оплаты серверов за АВГУСТ (всвязи с блокировками трафик упал в 3 раза), 1-2р., выручайте.
  

Снегоуборщик / Cold Pursuit (Ханс Петтер Муланд) [2019, боевик, триллер, драма, WEBRip 1080p] [ENG] pb.wtf

Снегоуборщик через торрент pb.wtf

Раздают: 1 [ 0 KB/s ]
Размер: 3.4 GB | Добавлен: 4 мес. 24 д. назад | Торрент скачан:30 раз
Скачать  

26-04-2019 09:26 Снегоуборщик Скачать торрент  

Снегоуборщик / Cold Pursuit
Год выпуска: 2019
Страна: Великобритания, Норвегия, Канада, США
Жанр: боевик, триллер, драма
Продолжительность: 01:58:10
Перевод : Отсутствует! [английский оригинал]
Субтитры: корейские (хардсаб)

Режиссер: Ханс Петтер Муланд

В ролях: Лиам Нисон, Лора Дерн, Эмми Россам, Том Бейтман, Уильям Форсайт, Джулия Джонс, Дэвид О Хара, Доменик Ломбардоззи, Элисия Ротару, Эмили Мэддисон

Описание: Мистер Коксман - примерный семьянин и уважаемый гражданин, размеренная жизнь которого заканчивается, когда наркоторговцы убивают его сына. В поисках справедливости он с ледяным хладнокровием начинает изощренно убирать бандитов одного за другим.

ratingскриншот  

Файл
Качество : WEBRip 1080p
Формат видео : MKV
Видео : MPEG-4 AVC, 3900 Кбит/с, 1920x800
Звук : 48 kHz, AAC, 6 ch, ~256 kbps
Video
ID : 1
Format : AVC
Format/Info : Advanced Video Codec
Format profile : High@L4.1
Format settings : CABAC / 4 Ref Frames
Format settings, CABAC : Yes
Format settings, ReFrames : 4 frames
Codec ID : V_MPEG4/ISO/AVC
Duration : 1 h 58 min
Bit rate : 3 849 kb/s
Width : 1 920 pixels
Height : 800 pixels
Display aspect ratio : 2.40:1
Frame rate mode : Constant
Frame rate : 23.976 (24000/1001) FPS
Color space : YUV
Chroma subsampling : 4:2:0
Bit depth : 8 bits
Scan type : Progressive
Bits/(Pixel*Frame) : 0.105
Stream size : 3.19 GiB (94%)
Title : Cold.Pursuit.2019.KORSUB.HDRip.x264-STUTTERSHIT
Default : Yes
Forced : No
Color range : Limited
Color primaries : BT.709
Transfer characteristics : BT.709
Matrix coefficients : BT.709

Audio
ID : 2
Format : AAC LC
Format/Info : Advanced Audio Codec Low Complexity
Codec ID : A_AAC-2
Duration : 1 h 58 min
Bit rate : 256 kb/s
Channel(s) : 2 channels
Channel layout : L R
Sampling rate : 48.0 kHz
Frame rate : 46.875 FPS (1024 SPF)
Compression mode : Lossy
Stream size : 217 MiB (6%)
Title : Cold.Pursuit.2019.KORSUB.HDRip.x264-STUTTERSHIT
Language : English
Default : Yes
Forced : No
скриншот  скриншот  скриншот  
pb.wtf



Скачать Снегоуборщик через торрент https://a.radikal.ru/a25/1902/f9/4b86518e13e4.jpg Скачать фильм Снегоуборщик через торрент бесплантно в хорошем качестве Описание: Мистер Коксман - примерный семьянин и уважаемый гражданин, размеренная жизнь которого заканчивается, когда наркоторговцы убивают ... 7.5 10 2
Торрент: Зарегистрирован [2019-04-26 09:26] · скачан: 30 раз
Статус: T временная
Размер: 3.4 GB
Как cкачать? Как скачать Снегоуборщик через торрент | qTorrent

% Раздел Тема Автор DL S | L
Фильмы (HD 720p, 1080p) (48-60 fps) [ 16.12 GB ] Снегоуборщик / Cold Pursuit [2019 BDRip 1080p 60 fps] sheker187 Скачать
3 | 0
Фильмы 2019 [DVDrip, WEB-DLRip, HDrip] (DUB, MVO) [ 1.46 GB ] Снегоуборщик / Cold Pursuit [2019 HDRip] killermax2013 Скачать
63 | 0
Фильмы [HD 720p, 1080p] (Хороший звук DUB, MVO) [ 11.74 GB ] Снегоуборщик / Cold Pursuit [2019 BDRip 1080p] + [MVO] killermax2013 Скачать
19 | 0
Фильмы [HD 720p, 1080p] (Хороший звук DUB, MVO) [ 6.31 GB ] Снегоуборщик / Cold Pursuit [2019 BDRip 720p ] Quadropedia Скачать
6 | 0
T Фильмы (WEB-DL 720p, 1080p) [ 4.28 GB ] Снегоуборщик / Cold Pursuit [2019 WEB-DL 1080p] MVO [CВ Студия] -Lexx- Скачать
19 | 0
Ultra HD (UHD: 2K, 4K, 8K) — видео сверхвысокой чёткости [ 74.22 GB ] Снегоуборщик / Cold Pursuit [2019 UHD Blu-ray 2160p] [Dolby Vision] sheker187 Скачать
1 | 1
Ultra HD (UHD: 2K, 4K, 8K) — видео сверхвысокой чёткости [ 17.12 GB ] Снегоуборщик / Cold Pursuit [2019 UHD BDRip 2160p] + MVO [СВ Студия] sheker187 Скачать
2 | 0


>> Регистрируемся здесь <<






Отзывы и комментарии о схеме читаем и пишем здесь: ---> Отзывы и комментарии о схеме

Новые благодарочки в телеграм довольных пользователей:
скриншот   скриншот   скриншот   скриншот   скриншот

27-04-2019 13:35 Снегоуборщик Скачать торрент  

ходил в кино) такая шляпа...pb.wtf



    Дорогой пользователь! Огромная просьба, поблагодарите релизера, оцените раздачу и оставьте свои комментарий, если Вы скачали Снегоуборщик через торрент бесплатно! Внесите свою лепту в развитие PiratBit!
    Комментировать посты могут только пользователи прошедшие не сложную регистрацию
    Показать сообщения:    

    Снегоуборщик через торрент
    Скачать бесплатно Снегоуборщик
    Снегоуборщик скачать торрент
    Снегоуборщик смотреть онлайн
    Cкачать фильм Снегоуборщик бесплатно
    Снегоуборщик скачать торрент в хорошем качестве
    Снегоуборщик смотреть онлайн бесплатно в хорошем качестве


    Вы не можете начинать темы
    Вы не можете отвечать на сообщения
    Вы не можете редактировать свои сообщения
    Вы не можете удалять свои сообщения
    Вы не можете голосовать в опросах
    Вы не можете прикреплять файлы к сообщениям
    Вы можете скачивать файлы