Ссылка на приватное зеркало нашего сайта всего за 1$. Внимание количество ограничено!!!

2 сезон

iTunes

1 сезон

1

iTunes

iTunes

iTunes

1 сезон

RePack

30

ИГРА 18+

pack

ВАЖНО

!!Акция!!

Alien_RageХит недели

RePack

MK11
pack

Забери бонус

RePack

jed

!!Акция!!

Alien_Rage

RePack

fifa19

RePack

Assassins Creed: Odyssey

RePack

NEED FOR SPEED™ PAYBACK

4 сезон

9 сезон

Бесстыжие 9 сезон

Все сериалы

все сериалы на PB.wtf

RePack

FAR CRY 5
  

Девять жизней / Сезон: 1 / Серии: 1-8 из 8 (Давид Ткебучава) [2019, Мелодрама, HDTVRip] pb.wtf

Девять жизней через торрент pb.wtf

Размер: 4.35 GB | Добавлен: 1 год 5 мес. назад | Торрент скачан:75 раз
Скачать  

26-04-2019 10:03 Девять жизней Скачать торрент  

Девять жизней Год выпуска: 2019
Страна: Россия
Жанр: Мелодрама
Продолжительность: ~ 00:52:00
Перевод: Не требуется
Субтитры: отсутствуют

Режиссер: Давид Ткебучава



В ролях:

Зоя Бербер, Александр Самойленко, Инга Оболдина, Сергей Чирков, Юлия Галкина, Евгения Добровольская, Валентин Смирнитский, Юрий Назаров, Валерий Афанасьев, Савелий Кудряшов, Александр Макогон, Александр Андриенко, Борис Шевченко, Сергей Борисов (III)

Описание:

Маша Трофимова мечтала о спокойной счастливой жизни: поступить в институт и выйти замуж за любимого Сергея. Но чтобы спасти отца от тюрьмы, Маше пришлось связать свою жизнь с чудовищем. В обмен на свободу отца, мать Маши устраивает дочери свадьбу с Игнатом, суровым хромым мужчиной гораздо старше Маши. Через несколько лет Сергей возвращается, чтобы отомстить бывшей невесте. В одночасье Маша лишается всего — мужа, сына, дома, надежды. Ее разыскивает и полиция, и бандиты. Она оставляет маленького сына родителям и пускается в бега. На что способна женщина, загнанная в угол?

Качество: HDTVRip
Формат: AVI

Видео: XviD build 73, 720x400 (16:9), 25.000 fps, ~ 1300 Kbps (~ 0.179 bit/pixel)
Аудио: 48 kHz, AC3, 2/0 (L,R) ch, ~192.00 kbps avg
скриншот  скриншот  скриншот  скриншот  скриншот  

General
Complete name: D:\Razdachi\Devjatj.Zhiznej.2019.HDTVRip.GeneralFilm\Devjatj.Zhiznej.e01.avi
Format: AVI
Format/Info: Audio Video Interleave
File size: 557 MiB
Duration: 52 min 22 s
Overall bit rate: 1 488 kb/s
Writing application: VirtualDubMod 1.5.10.3 | www.virtualdub-fr.org || (build 2550/release)
Writing library: VirtualDubMod build 2550/release

Video
ID: 0
Format: MPEG-4 Visual
Format profile: Advanced Simple@L5
Format settings: BVOP1 / Custom Matrix
Format settings, BVOP: 1
Format settings, QPel: No
Format settings, GMC: No warppoints
Format settings, Matrix: Custom
Codec ID: XVID
Codec ID/Hint: XviD
Duration: 52 min 22 s
Bit rate: 1 286 kb/s
Width: 720 pixels
Height: 400 pixels
Display aspect ratio: 16:9
Frame rate: 25.000 FPS
Color space: YUV
Chroma subsampling: 4:2:0
Bit depth: 8 bits
Scan type: Progressive
Compression mode: Lossy
Bits/(Pixel*Frame): 0.179
Stream size: 482 MiB (86%)
Writing library: XviD 73

Audio
ID: 1
Format: AC-3
Format/Info: Audio Coding 3
Commercial name: Dolby Digital
Codec ID: 2000
Duration: 52 min 22 s
Bit rate mode: Constant
Bit rate: 192 kb/s
Channel(s): 2 channels
Channel layout: L R
Sampling rate: 48.0 kHz
Frame rate: 31.250 FPS (1536 SPF)
Bit depth: 16 bits
Compression mode: Lossy
Delay relative to video: 160 ms
Stream size: 71.9 MiB (13%)
Alignment: Split accross interleaves
Interleave, duration: 40 ms (1.00 video frame)
Interleave, preload duratio: 500 ms
Service kind: Complete Main

pb.wtf



Скачать Девять жизней через торрент http://img16.lostpic.net/2019/04/22/b2c38a3a8407d09f4033407e08829ca4.jpg Скачать фильм Девять жизней через торрент бесплантно в хорошем качестве Описание: Маша Трофимова мечтала о спокойной счастливой жизни: поступить в институт и выйти замуж за любимого Сергея. Но чтобы спасти отца ... 10 10 3
Торрент: Зарегистрирован [2019-04-26 10:03] · скачан: 75 раз
Статус: √ проверено
Размер: 4.35 GB
Как cкачать? Как скачать Девять жизней через торрент | qTorrent

% Раздел Тема Автор DL S | L
Наши сериалы [ 20.81 GB ] Девять жизней / Сезон: 1 / Серии: 1-8 из 8 [2019 Мело HDTV 1080p] bober100 Скачать
1 | 0
Наши сериалы [ 12 GB ] Девять жизней / Сезон: 1 / Серии: 1-8 из 8 [2019 Мело HDTVRip 720p] bober100 Скачать
1 | 0
Наши сериалы [ 5.16 GB ] Девять жизней / Сезон: 1 / Серии: 1-8 из 8 [2019 Мело WEBRip-AVC] bober100 Скачать
1 | 0
Наши сериалы [ 5.19 GB ] Девять жизней / Сезон: 1 / Серии: 1-8 из 8 [2019 Мело WEB-DLRip] bober100 Скачать
1 | 0
Наши сериалы [ 4.69 GB ] Девять жизней / Сезон: 1 / Серии: 1-8 из 8 [2019 Мело SATRip] bober100 Скачать
1 | 0

28-11-2019 20:33  

Отключить всю рекламу на сайте

    Дорогой пользователь! Огромная просьба, поблагодарите релизера, оцените раздачу и оставьте свои комментарий, если Вы скачали Девять жизней через торрент бесплатно! Внесите свою лепту в развитие PiratBit!
    Комментировать посты могут только пользователи прошедшие не сложную регистрацию
    Показать сообщения:    

    Девять жизней через торрент
    Скачать бесплатно Девять жизней
    Девять жизней скачать торрент
    Девять жизней смотреть онлайн
    Cкачать фильм Девять жизней бесплатно
    Девять жизней скачать торрент в хорошем качестве
    Девять жизней смотреть онлайн бесплатно в хорошем качестве


    Вы не можете начинать темы
    Вы не можете отвечать на сообщения
    Вы не можете редактировать свои сообщения
    Вы не можете удалять свои сообщения
    Вы не можете голосовать в опросах
    Вы не можете прикреплять файлы к сообщениям
    Вы можете скачивать файлы