Ссылка на приватное зеркало нашего сайта всего за 1$. Внимание количество ограничено!!!

2 сезон

iTunes

1 сезон

1

2 сезон

2 сезон

iTunes

1 сезон

RePack

30

Ultimate

ВАЖНО

ИГРА 18+

pack

RePack

MK11
pack

Забери бонус

RePack

jed

!!Акция!!

Alien_Rage

RePack

fifa19

RePack

Assassins Creed: Odyssey

RePack

NEED FOR SPEED™ PAYBACK

4 сезон

9 сезон

Бесстыжие 9 сезон

Все сериалы

все сериалы на PB.wtf

RePack

FAR CRY 5
  

Неудачница / Benched / Сезон: 1 / Серии: 1-12 из 12 (Эрик Аппель, Майкл МакДональд, Виктор Нелли мл.) [2014, комедия, WEB-DL 1080p] MVO [TVShows] pb.wtf

Неудачница через торрент pb.wtf

Размер: 10.7 GB | Добавлен: 1 год 6 мес. назад | Торрент скачан:13 раз
Скачать  

26-04-2019 13:09 Неудачница Скачать торрент  

Неудачница / Benched Год выпуска: 2014
Страна: США
Жанр: комедия
Продолжительность: ~ 00:23:00
Перевод: Профессиональный (многоголосый) | TVShows
Субтитры: Английские

Режиссер: Эрик Аппель, Майкл МакДональд, Виктор Нелли мл.

rating


В ролях:

Элиза Куп, Джей Хэррингтон, Картер МакИнтайр, Оскар Нунез, Джолин Парди, Мария Бэмфорд, Питер Спруйт, Фред Меламед, Джек МакГи

Описание:

У Нины Уитлей было всё: успешная карьера в крупной юридической фирме, любимый человек, друзья.. или так ей казалось. После того как уже бывший возлюбленный объявляет о своей помолвке, а повышение достаётся её лучшей подруге, нервы Нины не выдерживают. Устроив сцену, она уходит из привычного мира дорогих костюмов, шикарных обедов и гостиниц, и единственным местом, где ей удаётся найти работу, оказывается офис государственного защитника. С этого момента ей приходится пересмотреть свои взгляды как на юридическую систему в целом, так и на себя, защищая людей, которые не смогли обеспечить себе адвоката, каждый день противостоя в суде своему бывшему жениху Тренту...

Качество: WEB-DL 1080p
Формат: MKV

Видео: 1920x1080 (16:9), 25.000 fps, MPEG-4 AVC ~4 200 kbps avg
Аудио#1: 48.0 kHz, AC3 Dolby Digital, 3/2 (L,C,R,l,r) + LFE ch, ~384 kbps | RUS
Аудио#2: 48.0 kHz, AC3 Dolby Digital, 3/2 (L,C,R,l,r) + LFE ch, ~384 kbps | ENG
скриншот  скриншот  скриншот  

Общее
Уникальный идентификатор : 241295652497459627280956508338307496774 (0xB587DA2DAE3F2816BA639EE27BC47B46)
Полное имя : D:\Benched.S01.1080p.WEB-DL.DD5.1.H.264-FILMS.CLUB\Benched.S01E01.Pilot.1080p.WEB-DL.DD5.1.H.264--FILMS.CLUB.mkv
Формат : Matroska
Версия формата : Version 4 / Version 2
Размер файла : 953 Мбайт
Продолжительность : 22 м. 27 с.
Общий поток : 5935 Кбит/сек
Дата кодирования : UTC 2017-12-14 03:01:13
Программа кодирования : mkvmerge v8.2.0 ('World of Adventure') 64bit
Библиотека кодирования : libebml v1.3.1 + libmatroska v1.4.2

Видео
Идентификатор : 1
Формат : AVC
Формат/Информация : Advanced Video Codec
Профиль формата : High@L4
Параметр CABAC формата : Да
Параметр RefFrames формата : 4 кадра
Идентификатор кодека : V_MPEG4/ISO/AVC
Продолжительность : 22 м. 27 с.
Битрейт : 5049 Кбит/сек
Ширина : 1920 пикселей
Высота : 1080 пикселей
Соотношение сторон : 16:9
Режим частоты кадров : Постоянный
Частота кадров : 23,976 (24000/1001) кадра/сек
Цветовое пространство : YUV
Субдискретизация насыщенности : 4:2:0
Битовая глубина : 8 бит
Тип развёртки : Прогрессивная
Бит/(Пиксели*Кадры) : 0.102
Размер потока : 811 Мбайт (85%)
Язык : English
Default : Да
Forced : Нет
Цветовой диапазон : Limited
Основные цвета : BT.709
Характеристики трансфера : BT.709
Коэффициенты матрицы : BT.709

Аудио #1
Идентификатор : 2
Формат : AC-3
Формат/Информация : Audio Coding 3
Расширение режима : CM (complete main)
Параметр Endianness формата : Big
Идентификатор кодека : A_AC3
Продолжительность : 22 м. 27 с.
Вид битрейта : Постоянный
Битрейт : 384 Кбит/сек
Каналы : 6 каналов
Расположение каналов : Front: L C R, Side: L R, LFE
Частота : 48,0 КГц
Частота кадров : 31,250 кадров/сек (1536 spf)
Метод сжатия : С потерями
Размер потока : 61,7 Мбайт (6%)
Язык : Russian
Default : Да
Forced : Нет

Аудио #2
Идентификатор : 3
Формат : AC-3
Формат/Информация : Audio Coding 3
Расширение режима : CM (complete main)
Параметр Endianness формата : Big
Идентификатор кодека : A_AC3
Продолжительность : 22 м. 27 с.
Вид битрейта : Постоянный
Битрейт : 384 Кбит/сек
Каналы : 6 каналов
Расположение каналов : Front: L C R, Side: L R, LFE
Частота : 48,0 КГц
Частота кадров : 31,250 кадров/сек (1536 spf)
Метод сжатия : С потерями
Размер потока : 61,7 Мбайт (6%)
Язык : English
Default : Нет
Forced : Нет

Текст
Идентификатор : 4
Формат : UTF-8
Идентификатор кодека : S_TEXT/UTF8
Идентификатор кодека/Информация : UTF-8 Plain Text
Язык : English
Default : Нет
Forced : Нет

pb.wtf



Скачать Неудачница через торрент http://a.radikal.ru/a18/1904/c0/20bc40be883a.jpg Скачать фильм Неудачница через торрент бесплантно в хорошем качестве Описание: У Нины Уитлей было всё: успешная карьера в крупной юридической фирме, любимый человек, друзья.. или так ей казалось. После того ... 10 10 2
Торрент: Зарегистрирован [2019-04-26 13:09] · скачан: 13 раз
Статус: √ проверено
Размер: 10.7 GB
Как cкачать? Как скачать Неудачница через торрент | qTorrent

28-11-2019 20:33  

Отключить всю рекламу на сайте

    Дорогой пользователь! Огромная просьба, поблагодарите релизера, оцените раздачу и оставьте свои комментарий, если Вы скачали Неудачница через торрент бесплатно! Внесите свою лепту в развитие PiratBit!
    Комментировать посты могут только пользователи прошедшие не сложную регистрацию
    Показать сообщения:    

    Неудачница через торрент
    Скачать бесплатно Неудачница
    Неудачница скачать торрент
    Неудачница смотреть онлайн
    Cкачать фильм Неудачница бесплатно
    Неудачница скачать торрент в хорошем качестве
    Неудачница смотреть онлайн бесплатно в хорошем качестве


    Вы не можете начинать темы
    Вы не можете отвечать на сообщения
    Вы не можете редактировать свои сообщения
    Вы не можете удалять свои сообщения
    Вы не можете голосовать в опросах
    Вы не можете прикреплять файлы к сообщениям
    Вы можете скачивать файлы