Ссылка на приватное зеркало нашего сайта всего за 1$. Внимание количество ограничено!!!

2 сезон

iTunes

1 сезон

1

2 сезон

2 сезон

iTunes

1 сезон

RePack

30

Ultimate

ВАЖНО

ИГРА 18+

pack

RePack

MK11
pack

Забери бонус

RePack

jed

!!Акция!!

Alien_Rage

RePack

fifa19

RePack

Assassins Creed: Odyssey

RePack

NEED FOR SPEED™ PAYBACK

4 сезон

9 сезон

Бесстыжие 9 сезон

Все сериалы

все сериалы на PB.wtf

RePack

FAR CRY 5
  

Ведьма / The VVitch: A New-England Folktale (Роберт Эггерс) [2015, Ужасы, детектив, UHD BDRemux 2160p] DUB [Лицензия] pb.wtf

Ведьма через торрент pb.wtf

Размер: 39.58 GB | Добавлен: 1 год 7 мес. назад | Торрент скачан:19 раз
Скачать  

26-04-2019 14:09 Ведьма Скачать торрент  

Ведьма / The VVitch: A New-England Folktale
Год выпуска: 2015
Страна: США, Великобритания, Канада, Бразилия
Жанр: Ужасы, детектив
Продолжительность: 01:32:17
Перевод: Дублированный | Лицензия Blu-Ray CEE
Субтитры: Русские (Full), английские

Режиссер: Роберт Эггерс

rating

В ролях:

Аня Тейлор-Джой, Ралф Айнесон, Кейт Дики, Харви Скримшо, Элли Грэйнджер, Лукас Доусон, Батшеба Гарнетт, Сара Стефенс, Джулиан Ричингс, Вахаб Каудхри

Описание:

Семья колонистов покидает плантацию, чтобы жить на уединенной ферме рядом с лесом в Новой Англии. Но вскоре младший ребёнок, ещё младенец, исчезает.

Качество: UHD BDRemux 2160p
Формат: MKV

Видео: 3840x2160 at 23.976 fps, MPEG-H HEVC HDR Video, 57200 kbps avg
Аудио#1: 48 kHz, DTS, 5.1, 768 Kbps | Лицензия | RUS |
Аудио#2: 48 kHz, DTS-HD MA, 5.1, 3415 Kbps | Оригинал | ENG |
скриншот  скриншот  скриншот  скриншот  скриншот  

General
Unique ID : 197837462659457603982680098670751322328 (0x94D61BFE152AE163B1C4B519DFD110D8)
Complete name : F:Video1The.VVitch.A.New.England.Folktale.2015.BDREMUX.2160p.HDR.seleZen.mkv
Format : Matroska
Format version : Version 4
File size : 39.6 GiB
Duration : 1 h 32 min
Overall bit rate mode : Variable
Overall bit rate : 61.4 Mb/s
Movie name : The VVitch A New England Folktale 2015 from селезень
Encoded date : UTC 2019-04-26 13:39:08
Writing application : mkvmerge v32.0.0 ('Astral Progressions') 64-bit
Writing library : libebml v1.3.7 + libmatroska v1.5.0

Video
ID : 1
Format : HEVC
Format/Info : High Efficiency Video Coding
Format profile : Main 10@L5.1@High
HDR format : SMPTE ST 2086, HDR10 compatible
Codec ID : V_MPEGH/ISO/HEVC
Duration : 1 h 32 min
Bit rate : 57.2 Mb/s
Width : 3 840 pixels
Height : 2 160 pixels
Display aspect ratio : 16:9
Frame rate mode : Constant
Frame rate : 23.976 (24000/1001) FPS
Color space : YUV
Chroma subsampling : 4:2:0 (Type 2)
Bit depth : 10 bits
Bits/(Pixel*Frame) : 0.288
Stream size : 36.9 GiB (93%)
Language : English
Default : Yes
Forced : No
Color range : Limited
Color primaries : BT.2020
Transfer characteristics : PQ
Matrix coefficients : BT.2020 non-constant
Mastering display color pri : Display P3
Mastering display luminance : min: 0.0001 cd/m2, max: 1000 cd/m2
Maximum Content Light Level : 347 cd/m2
Maximum Frame-Average Light : 50 cd/m2

Audio #1
ID : 2
Format : DTS
Format/Info : Digital Theater Systems
Codec ID : A_DTS
Duration : 1 h 32 min
Bit rate mode : Constant
Bit rate : 768 kb/s
Channel(s) : 6 channels
Channel layout : C L R Ls Rs LFE
Sampling rate : 48.0 kHz
Frame rate : 93.750 FPS (512 SPF)
Bit depth : 24 bits
Compression mode : Lossy
Stream size : 507 MiB (1%)
Title : Dub [License]
Language : Russian
Default : Yes
Forced : Yes

Audio #2
ID : 3
Format : DTS XLL
Format/Info : Digital Theater Systems
Commercial name : DTS-HD Master Audio
Codec ID : A_DTS
Duration : 1 h 32 min
Bit rate mode : Variable
Bit rate : 3 415 kb/s
Channel(s) : 6 channels
Channel layout : C L R Ls Rs LFE
Sampling rate : 48.0 kHz
Frame rate : 93.750 FPS (512 SPF)
Bit depth : 24 bits
Compression mode : Lossless
Stream size : 2.20 GiB (6%)
Title : Original
Language : English
Default : No
Forced : No

Text #1
ID : 4
Format : UTF-8
Codec ID : S_TEXT/UTF8
Codec ID/Info : UTF-8 Plain Text
Duration : 1 h 25 min
Bit rate : 59 b/s
Count of elements : 786
Stream size : 37.0 KiB (0%)
Title : Full
Language : Russian
Default : No
Forced : No

Text #2
ID : 5
Format : UTF-8
Codec ID : S_TEXT/UTF8
Codec ID/Info : UTF-8 Plain Text
Duration : 1 h 24 min
Bit rate : 40 b/s
Count of elements : 814
Stream size : 25.0 KiB (0%)
Title : Full
Language : English
Default : No
Forced : No

Text #3
ID : 6
Format : UTF-8
Codec ID : S_TEXT/UTF8
Codec ID/Info : UTF-8 Plain Text
Duration : 1 h 27 min
Bit rate : 43 b/s
Count of elements : 953
Stream size : 27.7 KiB (0%)
Title : SDH
Language : English
Default : No
Forced : No

Menu
00:00:00.000 : :Глава 01
00:04:44.158 : :Глава 02
00:13:12.333 : :Глава 03
00:18:51.672 : :Глава 04
00:26:40.432 : :Глава 05
00:29:47.869 : :Глава 06
00:37:11.145 : :Глава 07
00:42:09.068 : :Глава 08
00:48:23.609 : :Глава 09
00:53:23.867 : :Глава 10
01:00:36.049 : :Глава 11
01:04:13.558 : :Глава 12
01:10:27.431 : :Глава 13
01:13:55.431 : :Глава 14
01:20:42.045 : :Глава 15
01:25:14.901 : :Глава 16

pb.wtf



Скачать Ведьма через торрент http://img16.lostpic.net/2019/04/26/2ac233cec9a0a8bb41b229f359a084b8.jpg Скачать фильм Ведьма через торрент бесплантно в хорошем качестве Описание: Семья колонистов покидает плантацию, чтобы жить на уединенной ферме рядом с лесом в Новой Англии. Но вскоре младший ребёнок, ещё ... 6.2 10 5
Торрент: Зарегистрирован [2019-04-26 14:09] · скачан: 19 раз
Статус: √ проверено
Размер: 39.58 GB
Как cкачать? Как скачать Ведьма через торрент | qTorrent

% Раздел Тема Автор DL S | L
Фильмы 2015 [DVDrip, WEB-DLRip, HDrip] [ 1.46 GB ] Ведьма / The VVitch: A New-England Folktale [2015 BDRip-AVC] DUB potroks Скачать
1 | 0
Ultra HD (UHD: 2K, 4K, 8K) — видео сверхвысокой чёткости [ 58.47 GB ] Ведьма / The VVitch: A New-England Folktale [2015 UHD BDRemux 2160p] [] [Dolby Vision] sheker187 Скачать
1 | 0
Ultra HD (UHD: 2K, 4K, 8K) — видео сверхвысокой чёткости [ 12.82 GB ] Ведьма / The VVitch: A New-England Folktale [2015 UHD BDRip 2160p] [] sheker187 Скачать
2 | 0
Ultra HD (UHD: 2K, 4K, 8K) — видео сверхвысокой чёткости [ 42.01 GB ] Ведьма / The VVitch: A New-England Folktale [2015 UHD BDRemux 2160p] [] [Dolby Vision] sheker187 Скачать
1 | 0
Фильмы [HD 720p, 1080p] (Хороший звук DUB, MVO) [ 7.74 GB ] Ведьма / The VVitch: A New-England Folktale [2015 BDRip 1080p от еnvy / NNNB] DUB еnvy Скачать
48 | 1
Фильмы 2015 [DVDrip, WEB-DLRip, HDrip] [ 746 MB ] Ведьма / The VVitch: A New-England Folktale [2015 Бразилия BDRip-AVC от sokol_ok] DUB sokol_ok Скачать
3 | 0
Фильмы 2015 [DVDrip, WEB-DLRip, HDrip] [ 1.46 GB ] Ведьма / The VVitch: A New-England Folktale [2015 Бразилия BDRip-AVC от sokol_ok] DUB sokol_ok Скачать
3 | 0

28-11-2019 20:33  

Отключить всю рекламу на сайте

    Дорогой пользователь! Огромная просьба, поблагодарите релизера, оцените раздачу и оставьте свои комментарий, если Вы скачали Ведьма через торрент бесплатно! Внесите свою лепту в развитие PiratBit!
    Комментировать посты могут только пользователи прошедшие не сложную регистрацию
    Показать сообщения:    

    Ведьма через торрент
    Скачать бесплатно Ведьма
    Ведьма скачать торрент
    Ведьма смотреть онлайн
    Cкачать фильм Ведьма бесплатно
    Ведьма скачать торрент в хорошем качестве
    Ведьма смотреть онлайн бесплатно в хорошем качестве


    Вы не можете начинать темы
    Вы не можете отвечать на сообщения
    Вы не можете редактировать свои сообщения
    Вы не можете удалять свои сообщения
    Вы не можете голосовать в опросах
    Вы не можете прикреплять файлы к сообщениям
    Вы можете скачивать файлы