Ссылка на приватное зеркало нашего сайта всего за 1$. Внимание количество ограничено!!!

2 сезон

iTunes

1 сезон

1

iTunes

iTunes

iTunes

1 сезон

RePack

30

ИГРА 18+

pack

ВАЖНО

!!Акция!!

Alien_RageХит недели

RePack

MK11
pack

Забери бонус

RePack

jed

!!Акция!!

Alien_Rage

RePack

fifa19

RePack

Assassins Creed: Odyssey

RePack

NEED FOR SPEED™ PAYBACK

4 сезон

9 сезон

Бесстыжие 9 сезон

Все сериалы

все сериалы на PB.wtf

RePack

FAR CRY 5
  

Призраки прошлого / Серии: 1-2 из 2 (Влад Николаев) [2019, Детектив, драма, SATRip] pb.wtf

Призраки прошлого через торрент pb.wtf

Размер: 1.17 GB | Добавлен: 1 год 6 мес. назад | Торрент скачан:59 раз
Скачать  

26-04-2019 16:10 Призраки прошлого Скачать торрент  

Призраки прошлого Год выпуска: 2019
Страна: Россия
Жанр: Детектив, драма
Продолжительность: ~ 00:47:00 серия
Субтитры: отсутствуют

Режиссер: Влад Николаев



В ролях:

Максим Сапрыкин, Егор Бероев, Ксения Теплова, Кристина Исайкина, Анатолий Гущин, Иван Кокорин

Описание:

Врач "скорой" Алексей Иванов когда-то пережил жестокую травму – прямо в выпускной вечер была задушена его любимая одноклассница, и память об этом страшном происшествии продолжает преследовать его повсюду. Вернувшись ненадолго по делам на малую родину, в тихий провинциальный городок, Алексей становится главным подозреваемым в преступлении, которого не совершал, и теперь вынужден сам возглавить поиски маньяка – как оказалось, все эти годы тот продолжал расправляться с девушками, причём нападения случались только в те периоды, когда Алексей был в городе.

Качество: SATRip
Формат: AVI

Видео: XviD, ~ 1 800 Кбит/с, 720x400
Аудио#1: MP3, 2 ch, 192 Кбит/с
скриншот  скриншот  скриншот  скриншот  скриншот  

Общее
Полное имя : D:\Prizraki.proshlogo.2019.XviD.SATRip.25Kuzmich\Prizraki.proshlogo.(01.seriya.iz.02).XviD.SATRip.25Kuzmich.avi
Формат : AVI
Формат/Информация : Audio Video Interleave
Размер файла : 600 Мбайт
Продолжительность : 42 м. 28 с.
Общий поток : 1974 Кбит/сек
Программа кодирования : VirtualDubMod 1.5.10.3 | www.virtualdub-fr.org || (build 2550/release)
Библиотека кодирования : VirtualDubMod build 2550/release

Видео
Идентификатор : 0
Формат : MPEG-4 Visual
Профиль формата : Advanced Simple@L5
Параметр BVOP формата : 1
Параметр QPel формата : Нет
Параметр GMC формата : Без точки перехода
Параметр матрицы формата : Default (MPEG)
Идентификатор кодека : XVID
Идентификатор кодека/Подсказка : XviD
Продолжительность : 42 м. 28 с.
Продолжительность оригинала : 35 м. 39 с.
Битрейт : 1774 Кбит/сек
Ширина : 720 пикселей
Высота : 400 пикселей
Соотношение сторон : 16:9
Частота кадров : 25,000 кадров/сек
Цветовое пространство : YUV
Субдискретизация насыщенности : 4:2:0
Битовая глубина : 8 бит
Тип развёртки : Прогрессивная
Метод сжатия : С потерями
Бит/(Пиксели*Кадры) : 0.246
Размер потока : 452 Мбайт (75%)
Библиотека кодирования : XviD 73

Аудио
Идентификатор : 1
Формат : MPEG Audio
Версия формата : Version 1
Профиль формата : Layer 3
Режим : Joint stereo
Идентификатор кодека : 55
Идентификатор кодека/Подсказка : MP3
Продолжительность : 42 м. 28 с.
Продолжительность оригинала : 35 м. 39 с.
Вид битрейта : Постоянный
Битрейт : 192 Кбит/сек
Каналы : 2 канала
Частота : 48,0 КГц
Метод сжатия : С потерями
Размер потока : 49,0 Мбайт (8%)
Выравнивание : Соединение по промежуткам
Продолжительность промежутка : 40 мс. (1,00 видеокадр)
Время предзагрузки промежутка : 504 мс.
Библиотека кодирования : LAME3.99.5щ¶ъbўER3

pb.wtf



Скачать Призраки прошлого через торрент http://img14.lostpic.net/2019/04/26/376b89f1a45815860f12fef17c4bd99b.jpg Скачать фильм Призраки прошлого через торрент бесплантно в хорошем качестве Описание: Врач "скорой" Алексей Иванов когда-то пережил жестокую травму – прямо в выпускной вечер была задушена его любимая одноклассница, ... 10 10 4
Торрент: Зарегистрирован [2019-04-26 16:10] · скачан: 59 раз
Статус: √ проверено
Размер: 1.17 GB
Как cкачать? Как скачать Призраки прошлого через торрент | qTorrent

% Раздел Тема Автор DL S | L
Наши сериалы [ 1.19 GB ] Призраки прошлого / Серии: 1-2 из 2 [2019 WEBRip-AVC] aleksan55 Скачать
1 | 0
Наши сериалы [ 2 GB ] Призраки прошлого / Серии: 1-2 из 2 [2019 WEB-DL 720p] bober100 Скачать
1 | 0
Наши сериалы [ 1.13 GB ] Призраки прошлого / Серии: 1-2 из 2 [2019 WEBRip-AVC] bober100 Скачать
1 | 0

28-11-2019 20:33  

Отключить всю рекламу на сайте

    Дорогой пользователь! Огромная просьба, поблагодарите релизера, оцените раздачу и оставьте свои комментарий, если Вы скачали Призраки прошлого через торрент бесплатно! Внесите свою лепту в развитие PiratBit!
    Комментировать посты могут только пользователи прошедшие не сложную регистрацию
    Показать сообщения:    

    Призраки прошлого через торрент
    Скачать бесплатно Призраки прошлого
    Призраки прошлого скачать торрент
    Призраки прошлого смотреть онлайн
    Cкачать фильм Призраки прошлого бесплатно
    Призраки прошлого скачать торрент в хорошем качестве
    Призраки прошлого смотреть онлайн бесплатно в хорошем качестве


    Вы не можете начинать темы
    Вы не можете отвечать на сообщения
    Вы не можете редактировать свои сообщения
    Вы не можете удалять свои сообщения
    Вы не можете голосовать в опросах
    Вы не можете прикреплять файлы к сообщениям
    Вы можете скачивать файлы