Ссылка на приватное зеркало всего за 1$. Внимание количество ограничено!!!

OK

1+1

iTunes

мы

OK

1

WEB-DLRip

Джокер

Пифагор

Ведьмак / The Witcher сериал

iTunes

ПШазам

ОК

Оно 2

iTunes

30
pack

Вам бонус

ВАЖНО

!!Акция!!

Alien_RageХит недели

RePack

Resident Evil 21

ИГРА 18+

pack

RePack

jed

RePack

fifa19

RePack

Assassins Creed: Odyssey

RePack

NEED FOR SPEED™ PAYBACK

4 сезон

9 сезон

Бесстыжие 9 сезон

Все сериалы

все сериалы на PB.wtf

RePack

FAR CRY 5
  

Сезон чудес / The Miracle Season (Шон МакНамара) [2018, драма, спорт, BDRip 720p] MVO [Официальный звук] pb.wtf

Сезон чудес через торрент pb.wtf

Размер: 5.17 GB | Добавлен: 8 мес. назад | Торрент скачан:25 раз
Скачать  

26-04-2019 17:35 Сезон чудес Скачать торрент  

Сезон чудес / The Miracle Season
Год выпуска: 2018
Страна: США
Жанр: драма, спорт
Продолжительность: 01:41:51
Перевод: Профессиональный многоголосый | Официальный звук
Субтитры: отсутствуют

Режиссер: Шон МакНамара

rating

В ролях:

Эрин Мориарти, Хелен Хант, Даника Ярош, Уильям Хёрт, Тиера Сковбай, Ребекка Стааб, Джейсон Грей-Стенфорд, Неста Купер, Бёркли Даффилд, Натали Шарп

Описание:

Команда юных волейболисток обескуражена гибелью своего звёздного капитана Каролины. Её лучшей подруге Кэлли нужно набраться мужества, чтобы занять место капитана и под руководством сурового, но любящего тренера пробиться на престижный чемпионат.

Качество: BDRip 720p
Формат: MKV

Видео: h.264,6 815 Кбит/с, 1280x536
Аудио#1: Русский (AC3, 2 ch, 448 Кбит/с)
скриншот  скриншот  скриншот  

Общее
Уникальный идентификатор : 175338759985941770575574455903974602397 (0x83E9044EC3F39CA7815DEBBFAB64369D)
Полное имя : D:\The.Miracle.Season.2018.Pof.BDRip.72Op.mkv
Формат : Matroska
Версия формата : Version 2
Размер файла : 5,17 Гбайт
Продолжительность : 1 ч. 41 м.
Режим общего битрейта : Переменный
Общий поток : 7265 Кбит/сек
Дата кодирования : UTC 2019-04-26 03:32:01
Программа кодирования : mkvmerge v8.3.0 ('Over the Horizon') 64bit
Библиотека кодирования : libebml v1.3.1 + libmatroska v1.4.2

Видео
Идентификатор : 1
Формат : AVC
Формат/Информация : Advanced Video Codec
Профиль формата : High@L4.1
Параметр CABAC формата : Да
Параметр RefFrames формата : 4 кадра
Идентификатор кодека : V_MPEG4/ISO/AVC
Продолжительность : 1 ч. 41 м.
Вид битрейта : Переменный
Битрейт : 6815 Кбит/сек
Максимальный битрейт : 7500 Кбит/сек
Ширина : 1280 пикселей
Высота : 536 пикселей
Соотношение сторон : 2,40:1
Режим частоты кадров : Постоянный
Частота кадров : 23,976 (24000/1001) кадра/сек
Стандарт вещания : Component
Цветовое пространство : YUV
Субдискретизация насыщенности : 4:2:0
Битовая глубина : 8 бит
Тип развёртки : Прогрессивная
Бит/(Пиксели*Кадры) : 0.406
Размер потока : 4,75 Гбайт (92%)
Default : Да
Forced : Нет
Цветовой диапазон : Limited
Основные цвета : BT.709
Характеристики трансфера : BT.709
Коэффициенты матрицы : BT.709

Аудио
Идентификатор : 2
Формат : AC-3
Формат/Информация : Audio Coding 3
Расширение режима : CM (complete main)
Параметр Endianness формата : Big
Идентификатор кодека : A_AC3
Продолжительность : 1 ч. 41 м.
Вид битрейта : Постоянный
Битрейт : 448 Кбит/сек
Каналы : 2 канала
Расположение каналов : Front: L R
Частота : 48,0 КГц
Частота кадров : 31,250 кадров/сек (1536 spf)
Метод сжатия : С потерями
Размер потока : 326 Мбайт (6%)
Default : Да
Forced : Нет

pb.wtf



Скачать Сезон чудес через торрент https://c.radikal.ru/c35/1904/6f/dae2f8155008.jpg Скачать фильм Сезон чудес через торрент бесплантно в хорошем качестве Описание: Команда юных волейболисток обескуражена гибелью своего звёздного капитана Каролины. Её лучшей подруге Кэлли нужно набраться ... 10 10 3
Торрент: Зарегистрирован [2019-04-26 17:35] · скачан: 25 раз
Статус: # сомнительно
Размер: 5.17 GB
Как cкачать? Как скачать Сезон чудес через торрент | qTorrent

% Раздел Тема Автор DL S | L
# Фильмы (мультфильмы) cо спонсором показа (Новинки AVI/MKV) [ 9.27 GB ] Сезон чудес / The Miracle Season [2018 BDRip 1080p] MVO [Официальный звук] bober100 Скачать
1 | 0
T Фильмы (мультфильмы) cо спонсором показа (Новинки AVI/MKV) [ 1.46 GB ] Сезон чудес / The Miracle Season [2018 HDRip] MVO [Официальный звук] bober100 Скачать
2 | 0

28-11-2019 20:33  

Отключить всю рекламу на сайте


    Дорогой пользователь! Огромная просьба, поблагодарите релизера, оцените раздачу и оставьте свои комментарий, если Вы скачали Сезон чудес через торрент бесплатно! Внесите свою лепту в развитие PiratBit!
    Комментировать посты могут только пользователи прошедшие не сложную регистрацию
    Показать сообщения:    

    Сезон чудес через торрент
    Скачать бесплатно Сезон чудес
    Сезон чудес скачать торрент
    Сезон чудес смотреть онлайн
    Cкачать фильм Сезон чудес бесплатно
    Сезон чудес скачать торрент в хорошем качестве
    Сезон чудес смотреть онлайн бесплатно в хорошем качестве


    Вы не можете начинать темы
    Вы не можете отвечать на сообщения
    Вы не можете редактировать свои сообщения
    Вы не можете удалять свои сообщения
    Вы не можете голосовать в опросах
    Вы не можете прикреплять файлы к сообщениям
    Вы можете скачивать файлы