Ссылка на приватное зеркало всего за 1$. Внимание количество ограничено!!!

iTunes

iTunes

iTunes

1

iTunes

iTunes

iTunes

WEBRip

iTunes

30
pack

$ от Little Big

ВАЖНО

!!Акция!!

Alien_RageХит недели

RePack

Resident Evil 21

ИГРА 18+

pack

RePack

jed

!!Акция!!

Alien_Rage

RePack

fifa19

RePack

Assassins Creed: Odyssey

RePack

NEED FOR SPEED™ PAYBACK

4 сезон

9 сезон

Бесстыжие 9 сезон

Все сериалы

все сериалы на PB.wtf

RePack

FAR CRY 5
  

Сезон чудес / The Miracle Season (Шон МакНамара) [2018, драма, спорт, BDRip 1080p] MVO [iTunes] pb.wtf

Сезон чудес через торрент pb.wtf

Раздают: 1 [ 0 KB/s ]
Размер: 12.88 GB | Добавлен: 3 мес. 16 д. назад | Торрент скачан:31 раз
Скачать  

26-04-2019 17:35 Сезон чудес Скачать торрент  

Сезон чудес | The Miracle Season
Год выпуска: 2018
Страна: США
Жанр: драма, спорт
Продолжительность: 01:41:04
Перевод: Профессиональный многоголосый | iTunes
Субтитры: Английские (full, SDH), немецкие, португальские, испанские

Режиссер: Шон МакНамара

rating

В ролях: Эрин Мориарти, Хелен Хант, Даника Ярош, Уильям Хёрт, Тиера Сковбай, Ребекка Стааб, Джейсон Грей-Стенфорд, Неста Купер, Бёркли Даффилд, Натали Шарп

Описание: Фильм основан на реальных событиях и рассказывает вдохновляющую историю борьбы девушек из волейбольной команды Западной школы за первенство в чемпионате штата. После трагической смерти своего капитана Кэролайн в результате несчастного случая вся команда переживала физическое и эмоциональное опустошение. Однако, вместо того, чтобы опустить руки, девушки решают двигаться дальше. Под руководством сурового, но справедливого тренера, а также Келли, лучшей подруги погибшей, команда направляет все свои силы на достижение единственной цели — выиграть чемпионат.

Качество: BDRip 1080p
Формат: MKV

Видео: MPEG-4 AVC Video, 1920x804 (2.40:1), 23.976 fps, 16343 kbps
Аудио 1: Russian: 48 kHz, AC3, 3/2 (L, C, R, l, r) + LFE ch, ~384 kbps
Аудио 2: English: 48 kHz, DTS, 3/2 (L, C, R, l, r) + LFE ch, ~1509 kbps
скриншот  скриншот  скриншот  скриншот  

Общее
Уникальный идентификатор : 47907872990535074642152134007553251600 (0x240AB880DF5773EE7FAB3D3BB07FD910)
Полное имя : The.Miracle.Season.2018.BDRip.1080p.LoRD.TeamHD-ylnian.mkv
Формат : Matroska
Версия формата : Version 4
Размер файла : 12, 9 Гбайт
Продолжительность : 1 ч. 41 м.
Общий поток : 18, 2 Мбит/сек
Название фильма : The.Miracle.Season.2018.BDRip.1080p.LoRD.TeamHD-ylnian
Дата кодирования : UTC 2020-04-22 12:21:08
Программа кодирования : mkvmerge v45.0.0 ('Heaven in Pennies') 64-bit
Библиотека кодирования : libebml v1.3.10 + libmatroska v1.5.2

Видео
Идентификатор : 1
Формат : AVC
Формат/Информация : Advanced Video Codec
Профиль формата : High@L4.1
Настройки формата : CABAC / 5 Ref Frames
Параметр CABAC формата : Да
Параметр RefFrames формата : 5 кадров
Идентификатор кодека : V_MPEG4/ISO/AVC
Продолжительность : 1 ч. 41 м.
Битрейт : 16, 3 Мбит/сек
Ширина : 1 920 пикселей
Высота : 804 пикселя
Соотношение сторон : 2, 40:1
Режим частоты кадров : Постоянный
Частота кадров : 23, 976 (24000/1001) кадра/сек
Цветовое пространство : YUV
Субдискретизация насыщенности : 4:2:0
Битовая глубина : 8 бит
Тип развёртки : Прогрессивная
Бит/(Пиксели*Кадры) : 0.442
Размер потока : 11, 5 Гбайт (90%)
Заголовок : LoRD
Библиотека кодирования : x264 core 157 r2932 303c484
Настройки программы : cabac=1 / ref=5 / deblock=1:-3:-3 / analyse=0x3:0x133 / me=umh / subme=10 / psy=1 / psy_rd=1.00:0.00 / mixed_ref=1 / me_range=32 / chroma_me=1 / trellis=2 / 8x8dct=1 / cqm=0 / deadzone=21, 11 / fast_pskip=0 / chroma_qp_offset=-2 / threads=12 / lookahead_threads=2 / sliced_threads=0 / nr=0 / decimate=0 / interlaced=0 / bluray_compat=0 / constrained_intra=0 / bframes=8 / b_pyramid=2 / b_adapt=2 / b_bias=0 / direct=3 / weightb=1 / open_gop=0 / weightp=2 / keyint=250 / keyint_min=23 / scenecut=40 / intra_refresh=0 / rc_lookahead=60 / rc=2pass / mbtree=0 / bitrate=16348 / ratetol=1.0 / qcomp=0.60 / qpmin=0 / qpmax=69 / qpstep=4 / cplxblur=20.0 / qblur=0.5 / vbv_maxrate=50000 / vbv_bufsize=62500 / nal_hrd=none / filler=0 / ip_ratio=1.30 / pb_ratio=1.20 / aq=3:0.80
Язык : English
Default : Да
Forced : Нет

Аудио #1
Идентификатор : 2
Формат : AC-3
Формат/Информация : Audio Coding 3
Коммерческое название : Dolby Digital
Идентификатор кодека : A_AC3
Продолжительность : 1 ч. 41 м.
Вид битрейта : Постоянный
Битрейт : 384 Кбит/сек
Каналы : 6 каналов
Channel layout : L R C LFE Ls Rs
Частота : 48, 0 КГц
Частота кадров : 31, 250 кадров/сек (1536 SPF)
Метод сжатия : С потерями
Размер потока : 278 Мбайт (2%)
Заголовок : MVO - iTunes
Язык : Russian
Service kind : Complete Main
Default : Да
Forced : Нет

Аудио #2
Идентификатор : 3
Формат : DTS
Формат/Информация : Digital Theater Systems
Идентификатор кодека : A_DTS
Продолжительность : 1 ч. 41 м.
Вид битрейта : Постоянный
Битрейт : 1 509 Кбит/сек
Каналы : 6 каналов
Channel layout : C L R Ls Rs LFE
Частота : 48, 0 КГц
Частота кадров : 93, 750 кадра/сек (512 SPF)
Битовая глубина : 24 бит
Метод сжатия : С потерями
Размер потока : 1, 07 Гбайт (8%)
Язык : English
Default : Нет
Forced : Нет

Текст #1
Идентификатор : 4
Формат : UTF-8
Идентификатор кодека : S_TEXT/UTF8
Идентификатор кодека/Информация : UTF-8 Plain Text
Продолжительность : 1 ч. 36 м.
Битрейт : 55 бит/сек
Count of elements : 1268
Размер потока : 39, 1 Кбайт (0%)
Заголовок : full
Язык : English
Default : Нет
Forced : Нет

Текст #2
Идентификатор : 5
Формат : UTF-8
Идентификатор кодека : S_TEXT/UTF8
Идентификатор кодека/Информация : UTF-8 Plain Text
Продолжительность : 1 ч. 37 м.
Битрейт : 69 бит/сек
Count of elements : 1638
Размер потока : 49, 8 Кбайт (0%)
Заголовок : SDH
Язык : English
Default : Нет
Forced : Нет

Текст #3
Идентификатор : 6
Формат : UTF-8
Идентификатор кодека : S_TEXT/UTF8
Идентификатор кодека/Информация : UTF-8 Plain Text
Продолжительность : 1 ч. 38 м.
Битрейт : 54 бит/сек
Count of elements : 1096
Размер потока : 39, 5 Кбайт (0%)
Язык : German
Default : Нет
Forced : Нет

Текст #4
Идентификатор : 7
Формат : UTF-8
Идентификатор кодека : S_TEXT/UTF8
Идентификатор кодека/Информация : UTF-8 Plain Text
Продолжительность : 1 ч. 37 м.
Битрейт : 52 бит/сек
Count of elements : 1257
Размер потока : 37, 6 Кбайт (0%)
Язык : Portuguese
Default : Нет
Forced : Нет

Текст #5
Идентификатор : 8
Формат : UTF-8
Идентификатор кодека : S_TEXT/UTF8
Идентификатор кодека/Информация : UTF-8 Plain Text
Продолжительность : 1 ч. 40 м.
Битрейт : 56 бит/сек
Count of elements : 1299
Размер потока : 41, 8 Кбайт (0%)
Язык : Spanish
Default : Нет
Forced : Нет

Меню
00: 00:00.000 : en:Глава 01
00: 06:39.524 : en:Глава 02
00: 13:53.666 : en:Глава 03
00: 19:23.412 : en:Глава 04
00: 27:54.881 : en:Глава 05
00: 35:27.750 : en:Глава 06
00: 41:09.925 : en:Глава 07
00: 46:54.353 : en:Глава 08
00: 53:18.153 : en:Глава 09
01: 01:07.747 : en:Глава 10
01: 06:39.161 : en:Глава 11
01: 11:42.381 : en:Глава 12
01: 18:56.898 : en:Глава 13
01: 24:35.779 : en:Глава 14
01: 29:50.218 : en:Глава 15
01:35:23.592 : en:Глава 16

pb.wtf



Скачать Сезон чудес через торрент https://i2.imageban.ru/out/2020/04/22/8f4050f79a1198709639391837303231.png Скачать фильм Сезон чудес через торрент бесплантно в хорошем качестве Описание: Фильм основан на реальных событиях и рассказывает вдохновляющую историю борьбы девушек из волейбольной команды Западной школы за ... 9.8 10 4
Торрент: Зарегистрирован [2020-04-22 19:10] · скачан: 31 раз
Статус: √ проверено
Размер: 12.88 GB
Как cкачать? Как скачать Сезон чудес через торрент | qTorrent

% Раздел Тема Автор DL S | L
Фильмы 2018 [DVDrip, WEB-DLRip, HDrip] (DUB, MVO) [ 1.42 GB ] Сезон чудес / The Miracle Season [2018 BDRip] MVO Twi7ter Скачать
5 | 0
Фильмы 2018 [DVDrip, WEB-DLRip, HDrip] (DUB, MVO) [ 744 MB ] Сезон чудес / The Miracle Season [2018 HDRip] MVO bober100 Скачать
2 | 0
Фильмы [HD 720p, 1080p] (Хороший звук DUB, MVO) [ 6.11 GB ] Сезон чудес / The Miracle Season [2018 BDRip 720p] MVO bober100 Скачать
1 | 0
Фильмы 2018 [DVDrip, WEB-DLRip, HDrip] (DUB, MVO) [ 1.42 GB ] Сезон чудес / The Miracle Season [2018 BDRip] MVO bober100 Скачать
2 | 0

28-11-2019 20:33  

Отключить всю рекламу на сайте

    Дорогой пользователь! Огромная просьба, поблагодарите релизера, оцените раздачу и оставьте свои комментарий, если Вы скачали Сезон чудес через торрент бесплатно! Внесите свою лепту в развитие PiratBit!
    Комментировать посты могут только пользователи прошедшие не сложную регистрацию
    Показать сообщения:    

    Сезон чудес через торрент
    Скачать бесплатно Сезон чудес
    Сезон чудес скачать торрент
    Сезон чудес смотреть онлайн
    Cкачать фильм Сезон чудес бесплатно
    Сезон чудес скачать торрент в хорошем качестве
    Сезон чудес смотреть онлайн бесплатно в хорошем качестве


    Вы не можете начинать темы
    Вы не можете отвечать на сообщения
    Вы не можете редактировать свои сообщения
    Вы не можете удалять свои сообщения
    Вы не можете голосовать в опросах
    Вы не можете прикреплять файлы к сообщениям
    Вы можете скачивать файлы