Ссылка на приватное зеркало всего за 1$. Внимание количество ограничено!!!

OK

1+1

iTunes

мы

OK

1

WEB-DLRip

Джокер

Пифагор

Ведьмак / The Witcher сериал

Лицензия

ПШазам

ОК

Оно 2

iTunes

30
pack

Вам бонус

ВАЖНО

!!Акция!!

Alien_RageХит недели

RePack

Resident Evil 21

ИГРА 18+

pack

RePack

jed

RePack

fifa19

RePack

Assassins Creed: Odyssey

RePack

NEED FOR SPEED™ PAYBACK

4 сезон

9 сезон

Бесстыжие 9 сезон

Все сериалы

все сериалы на PB.wtf

RePack

FAR CRY 5
  

Я плюю на ваши могилы: Дежа вю / I Spit on Your Grave: Deja Vu (Мейр Зарки) [2019, ужасы, триллер, BDRip 720p] MVO ["Синема УС"] pb.wtf

Я плюю на ваши могилы: Дежа вю через торрент pb.wtf

Раздают: 1 [ 0 KB/s ]
Размер: 7.4 GB | Добавлен: 8 мес. назад | Торрент скачан:103 раза
Скачать  

26-04-2019 17:50 Я плюю на ваши могилы: Дежа вю Скачать торрент  

Я плюю на ваши могилы: Дежа вю / I Spit on Your Grave: Deja Vu Год выпуска: 2019
Страна: США
Жанр: ужасы, триллер
Продолжительность: 02:28:47
Перевод: Любительский (многоголосый) | "Синема УС"
Субтитры: отсутствуют

Режиссер: Мейр Зарки

rating

В ролях:

Камилль Китон, Джэми Бернадетт, Мария Олсен, Джим Таварэ, Джон Писи, Джереми Фердман, Холги Форрестер, Рой Аллен III, Александра Кенворти, Терри Зарки

Описание:

Дженнифер Хиллз написала бестселлер о случае своего изнасилования. Однако, после спорного судебного разбирательства, в котором она была обвинена во взятии закона в свои руки и жестоком убийстве изнасиловавших её отморозков, родственники убитых пришли в ярость, узнав, что суд признал ее невиновной, и решили взять закон в свои руки.

Качество: BDRip 720p
Формат: MKV

Видео: h.264,6 671 Кбит/с, 1280x534
Аудио#1: Русский (AC3, 2 ch, 448 Кбит/с)
скриншот  скриншот  скриншот  

Общее
Уникальный идентификатор : 209073631302525177600859171295868965702 (0x9D4A1DE0C124A3438C318817AF7B5346)
Полное имя : D:\I.Spit.On.Your.Grave.Deja.Vu.2019.P.BDRip.72Op.mkv
Формат : Matroska
Версия формата : Version 2
Размер файла : 7,40 Гбайт
Продолжительность : 2 ч. 28 м.
Режим общего битрейта : Переменный
Общий поток : 7120 Кбит/сек
Дата кодирования : UTC 2019-04-26 05:28:43
Программа кодирования : mkvmerge v8.3.0 ('Over the Horizon') 64bit
Библиотека кодирования : libebml v1.3.1 + libmatroska v1.4.2

Видео
Идентификатор : 1
Формат : AVC
Формат/Информация : Advanced Video Codec
Профиль формата : High@L4.1
Параметр CABAC формата : Да
Параметр RefFrames формата : 4 кадра
Идентификатор кодека : V_MPEG4/ISO/AVC
Продолжительность : 2 ч. 28 м.
Вид битрейта : Переменный
Битрейт : 6671 Кбит/сек
Максимальный битрейт : 7500 Кбит/сек
Ширина : 1280 пикселей
Высота : 534 пикселя
Соотношение сторон : 2,40:1
Режим частоты кадров : Постоянный
Частота кадров : 23,976 (24000/1001) кадра/сек
Стандарт вещания : Component
Цветовое пространство : YUV
Субдискретизация насыщенности : 4:2:0
Битовая глубина : 8 бит
Тип развёртки : Прогрессивная
Бит/(Пиксели*Кадры) : 0.399
Размер потока : 6,79 Гбайт (92%)
Default : Да
Forced : Нет
Цветовой диапазон : Limited
Основные цвета : BT.709
Характеристики трансфера : BT.709
Коэффициенты матрицы : BT.709

Аудио
Идентификатор : 2
Формат : AC-3
Формат/Информация : Audio Coding 3
Расширение режима : CM (complete main)
Параметр Endianness формата : Big
Идентификатор кодека : A_AC3
Продолжительность : 2 ч. 28 м.
Вид битрейта : Постоянный
Битрейт : 448 Кбит/сек
Каналы : 2 канала
Расположение каналов : Front: L R
Частота : 48,0 КГц
Частота кадров : 31,250 кадров/сек (1536 spf)
Метод сжатия : С потерями
Размер потока : 477 Мбайт (6%)
Default : Да
Forced : Нет

pb.wtf



Скачать Я плюю на ваши могилы: Дежа вю через торрент https://d.radikal.ru/d29/1904/2b/ec5baff35c15.jpg Скачать фильм Я плюю на ваши могилы: Дежа вю через торрент бесплантно в хорошем качестве Описание: Дженнифер Хиллз написала бестселлер о случае своего изнасилования. Однако, после спорного судебного разбирательства, в котором ... 6.9 10 12
Торрент: Зарегистрирован [2019-04-26 17:50] · скачан: 103 раз
Статус: # сомнительно
Размер: 7.4 GB
Как cкачать? Как скачать Я плюю на ваши могилы: Дежа вю через торрент | qTorrent

% Раздел Тема Автор DL S | L
T Фильмы (мультфильмы) cо спонсором показа (Новинки AVI/MKV) [ 1.46 GB ] Я плюю на ваши могилы: Дежа вю / I Spit on Your Grave: Deja Vu [2019 HDRip] MVO ["Синема УС"] bober100 Скачать
2 | 0
T Фильмы (мультфильмы) cо спонсором показа (Новинки AVI/MKV) [ 2.18 GB ] Я плюю на ваши могилы: Дежа вю / I Spit on Your Grave: Deja Vu [2019 HDRip] MVO ["Синема УС"] bober100 Скачать
1 | 0

28-11-2019 20:33  

Отключить всю рекламу на сайте

26-04-2019 18:35 Я плюю на ваши могилы: Дежа вю Скачать торрент  

1 часть 6.3\10
2 часть 5.3\10
3 часть 4.7\10
дажавю 2.7 ? pb.wtf



    Дорогой пользователь! Огромная просьба, поблагодарите релизера, оцените раздачу и оставьте свои комментарий, если Вы скачали Я плюю на ваши могилы: Дежа вю через торрент бесплатно! Внесите свою лепту в развитие PiratBit!
    Комментировать посты могут только пользователи прошедшие не сложную регистрацию
    Показать сообщения:    

    Я плюю на ваши могилы: Дежа вю через торрент
    Скачать бесплатно Я плюю на ваши могилы: Дежа вю
    Я плюю на ваши могилы: Дежа вю скачать торрент
    Я плюю на ваши могилы: Дежа вю смотреть онлайн
    Cкачать фильм Я плюю на ваши могилы: Дежа вю бесплатно
    Я плюю на ваши могилы: Дежа вю скачать торрент в хорошем качестве
    Я плюю на ваши могилы: Дежа вю смотреть онлайн бесплатно в хорошем качестве


    Вы не можете начинать темы
    Вы не можете отвечать на сообщения
    Вы не можете редактировать свои сообщения
    Вы не можете удалять свои сообщения
    Вы не можете голосовать в опросах
    Вы не можете прикреплять файлы к сообщениям
    Вы можете скачивать файлы