Ссылка на приватное зеркало нашего сайта всего за 1$. Внимание количество ограничено!!!

2 сезон

iTunes

1 сезон

1

iTunes

iTunes

iTunes

1 сезон

RePack

30

ИГРА 18+

pack

ВАЖНО

!!Акция!!

Alien_RageХит недели

RePack

MK11
pack

Забери бонус

RePack

jed

!!Акция!!

Alien_Rage

RePack

fifa19

RePack

Assassins Creed: Odyssey

RePack

NEED FOR SPEED™ PAYBACK

4 сезон

9 сезон

Бесстыжие 9 сезон

Все сериалы

все сериалы на PB.wtf

RePack

FAR CRY 5
  

Овраг / Серии: 1-2 из 2 (Ольга Ланд) [2019, Криминал, мелодрама, SATRip] pb.wtf

Овраг через торрент pb.wtf

Размер: 1.17 GB | Добавлен: 1 год 5 мес. назад | Торрент скачан:36 раз
Скачать  

26-04-2019 19:28 Овраг Скачать торрент  

Овраг Год выпуска: 2019
Страна: Россия
Жанр: Криминал, мелодрама
Продолжительность: ~ 00:46:00
Субтитры: отсутствуют

Режиссер: Ольга Ланд



В ролях:

Юлия Кокрятская, Олег Гаас, Илья Ермолов, Юрий Беляев, Наталья Гвоздикова, Владимир Фоков, Олег Филипчик, Юрий Гумиров

Описание:

Дом, где выросла Ксения, стоит около оврага. С каждым годом край все ближе, но старики Матвеевы – бабушка и дедушка девушки – наотрез отказываются съезжать. В горькую минуту Лина Андреевна признается: она все еще надеется, что сюда вернется ее дочь Оленька. Однако вскоре на дне оврага находят останки женщины. Выясняется, что Ольга Матвеева погибла пятнадцать лет назад и все это время была здесь… Мир Ксении рушится: бабушка с дедушкой когда-то убедили ее, что мама бросила дочь и уехала на край света. Она запретила себе думать о матери и любить ее. А теперь получается, что мама никуда не уезжала. Что же случилось пятнадцать лет назад? Ксения вновь и вновь прокручивает детские воспоминания, встречается с теми, кто знал когда-то ее мать. Ольга была особенной – яркой, необычной, роковой женщиной, сводившей с ума многих мужчин. Когда Ксении кажется, что она начинает приближаться к разгадке, вокруг нее начинает происходить нечто странное. Похоже, кто-то всеми силами пытается не дать ей открыть тайны прошлого. Даже если для этого придется ее убить…

Качество: SATRip
Формат: AVI

Видео: XviD, ~ 1650 Кбит/с, 720x400
Аудио: MP3, 2 ch, 192 Кбит/с
скриншот  скриншот  скриншот  скриншот  

Общее
Полное имя : D:\Ovrag.2018.XviD.SATRip.25Kuzmich\Ovrag.(01.seriya.iz.02).XviD.SATRip.25Kuzmich.avi
Формат : AVI
Формат/Информация : Audio Video Interleave
Размер файла : 600 Мбайт
Продолжительность : 46 м. 2 с.
Общий поток : 1822 Кбит/сек
Программа кодирования : VirtualDubMod 1.5.10.3 | www.virtualdub-fr.org || (build 2550/release)
Библиотека кодирования : VirtualDubMod build 2550/release

Видео
Идентификатор : 0
Формат : MPEG-4 Visual
Профиль формата : Advanced Simple@L5
Параметр BVOP формата : 1
Параметр QPel формата : Нет
Параметр GMC формата : Без точки перехода
Параметр матрицы формата : Default (MPEG)
Идентификатор кодека : XVID
Идентификатор кодека/Подсказка : XviD
Продолжительность : 46 м. 2 с.
Битрейт : 1649 Кбит/сек
Ширина : 720 пикселей
Высота : 400 пикселей
Соотношение сторон : 16:9
Частота кадров : 25,000 кадров/сек
Цветовое пространство : YUV
Субдискретизация насыщенности : 4:2:0
Битовая глубина : 8 бит
Тип развёртки : Прогрессивная
Метод сжатия : С потерями
Бит/(Пиксели*Кадры) : 0.215
Размер потока : 510 Мбайт (85%)
Библиотека кодирования : XviD 73

Аудио
Идентификатор : 1
Формат : MPEG Audio
Версия формата : Version 1
Профиль формата : Layer 3
Режим : Joint stereo
Идентификатор кодека : 55
Идентификатор кодека/Подсказка : MP3
Продолжительность : 46 м. 2 с.
Вид битрейта : Постоянный
Битрейт : 192 Кбит/сек
Каналы : 2 канала
Частота : 48,0 КГц
Метод сжатия : С потерями
Размер потока : 63,2 Мбайт (11%)
Выравнивание : Соединение по промежуткам
Библиотека кодирования : LAME3.99r
Настройки программы : -m j -V 4 -q 2 -lowpass 18.6 -b 192

pb.wtf



Скачать Овраг через торрент https://c.radikal.ru/c36/1904/5f/4c0ee4d741a7.jpg Скачать фильм Овраг через торрент бесплантно в хорошем качестве Описание: Дом, где выросла Ксения, стоит около оврага. С каждым годом край все ближе, но старики Матвеевы – бабушка и дедушка девушки – ... 10 10 5
Торрент: Зарегистрирован [2019-04-26 19:28] · скачан: 36 раз
Статус: √ проверено
Размер: 1.17 GB
Как cкачать? Как скачать Овраг через торрент | qTorrent

% Раздел Тема Автор DL S | L
Наши сериалы [ 1.14 GB ] Овраг / Серии: 1-2 из 2 [2019 WEB-DLRip-AVC] bober100 Скачать
1 | 0
Наши сериалы [ 1.12 GB ] Овраг / Серии: 1-2 из 2 [2019 SATRip-AVC] aleksan55 Скачать
1 | 0

28-11-2019 20:33  

Отключить всю рекламу на сайте

    Дорогой пользователь! Огромная просьба, поблагодарите релизера, оцените раздачу и оставьте свои комментарий, если Вы скачали Овраг через торрент бесплатно! Внесите свою лепту в развитие PiratBit!
    Комментировать посты могут только пользователи прошедшие не сложную регистрацию
    Показать сообщения:    

    Овраг через торрент
    Скачать бесплатно Овраг
    Овраг скачать торрент
    Овраг смотреть онлайн
    Cкачать фильм Овраг бесплатно
    Овраг скачать торрент в хорошем качестве
    Овраг смотреть онлайн бесплатно в хорошем качестве


    Вы не можете начинать темы
    Вы не можете отвечать на сообщения
    Вы не можете редактировать свои сообщения
    Вы не можете удалять свои сообщения
    Вы не можете голосовать в опросах
    Вы не можете прикреплять файлы к сообщениям
    Вы можете скачивать файлы