Мега распродажа FORZA HORIZON 4 ULTIMATE+ВСЕ DLC+ОНЛАЙН всего за 499р. 349 руб. (супер цена). Внимание количество ограничено!!!

iTunes

1+1

iTunes

мы

iTunes

1

1 сезон

Чернобыль

1 сезон

Ральф против интернета

Лицензия

ПШазам

8 сезон

Игра престолов

Лицензия

30
pack

ВАЖНО

!!Акция!!

Alien_RageХит недели

RePack

Resident Evil 21

ИГРА 18+

pack

RePack

Metro:Exodus

!!Акция!!

Alien_Rage

RePack

fifa19

RePack

Assassins Creed: Odyssey

RePack

NEED FOR SPEED™ PAYBACK

3 сезон

9 сезон

Бесстыжие 9 сезон

Все сериалы

все сериалы на PB.wtf

RePack

FAR CRY 5
Ребята, катастрофически не хватает 2730р. для оплаты серверов за ИЮНЬ (всвязи с блокировками трафик упал в 3 раза), 1-2р., выручайте.
  

Крипто / Crypto (Джон Сталберг) [2019, триллер, драма, криминал, WEB-DL 1080p] MVO [HDRezka Studio] - ExKinoRay pb.wtf

Крипто через торрент pb.wtf

Раздают: 65 [ 0 KB/s ]
Размер: 3.86 GB | Добавлен: 2 мес. 22 д. назад | Торрент скачан:208 раз
Скачать  

27-04-2019 00:53 Крипто Скачать торрент  

Название: Крипто
Оригинальное название: Crypto
Год выпуска: 2019
Жанр: Триллер, драма, криминал
Режиссер: Джон Сталберг
В ролях: Курт Расселл, Люк Хемсворт, Алексис Бледел, Винсент Картайзер, Джилл Хеннесси, Бо Напп, Малая Ривера Дрю, Марели Миниутти, Марша Дитлайн, Джереми Харрис

Описание: В центре истории находится Мартин — сотрудник банка, работающий в отделе по борьбе с отмыванием денег. Несмотря на то, что мужчина прекрасно справляется со своими обязанностями, босс решает отправить его в длительную командировку в родной город. Мартин не в восторге от провинциальной жизни, но приступает к работе и неожиданно сталкивается с подозрительными денежными потоками, которые проходят через местную галерею, продающую картины на миллионы долларов в криптовалюте.

rating

Выпущено: США, Yale Productions, BondIt Media Capital, Dynasty Pictures (II)
Продолжительность: 01:45:54
Перевод: Профессиональный (многоголосый, закадровый) | HDRezka Studio
Субтитры: Английские

БЕЗ КАКОЙ-ЛИБО РЕКЛАМЫ!

Формат: MKV
Качество: WEB-DL 1080p
Видео: MPEG-4 AVC, 1920x716 (2.682:1), 23.976 fps, 4476 Kbps, 0.136 bit/pixel
Аудио 1: 48 kHz, AC3, 2.0, 256 Kbps | MVO | RUS |
Аудио 2: 48 kHz, AC3, 5.1, 384 Kbps | Оригинал | ENG |
General
Unique ID : 209097886456307864300265715435126365146 (0x9D4EC9BFD5E82B1D8EC48A28223B9BDA)
Complete name : F:\Crypto.2019.MVO.1080p.WEB-DL.ExKinoRay.mkv
Format : Matroska
Format version : Version 2
File size : 3.86 GiB
Duration : 1 h 45 min
Overall bit rate : 5 219 kb/s
Movie name : Crypto 2019 from ExKinoRay
Encoded date : UTC 2019-04-26 23:51:52
Writing application : mkvmerge v5.6.0 ('Kenya Kane') built on May 27 2012 16:44:04
Writing library : libebml v1.2.3 + libmatroska v1.3.0

Video
ID : 1
Format : AVC
Format/Info : Advanced Video Codec
Format profile : High@L4
Format settings, CABAC : Yes
Format settings, ReFrames : 5 frames
Codec ID : V_MPEG4/ISO/AVC
Duration : 1 h 45 min
Bit rate : 4 476 kb/s
Width : 1 920 pixels
Height : 716 pixels
Display aspect ratio : 2.682
Frame rate mode : Constant
Frame rate : 23.976 (24000/1001) FPS
Color space : YUV
Chroma subsampling : 4:2:0
Bit depth : 8 bits
Scan type : Progressive
Bits/(Pixel*Frame) : 0.136
Stream size : 3.31 GiB (86%)
Title : Crypto.2019.1080p.WEB-DL
Language : English
Default : Yes
Forced : No
Color range : Limited
Color primaries : BT.709
Transfer characteristics : BT.709
Matrix coefficients : BT.709

Audio #1
ID : 2
Format : AC-3
Format/Info : Audio Coding 3
Mode extension : CM (complete main)
Format settings, Endianness : Big
Codec ID : A_AC3
Duration : 1 h 45 min
Bit rate mode : Constant
Bit rate : 256 kb/s
Channel(s) : 2 channels
Channel positions : Front: L R
Sampling rate : 48.0 kHz
Frame rate : 31.250 FPS (1536 spf)
Compression mode : Lossy
Delay relative to video : -43 ms
Stream size : 194 MiB (5%)
Title : MVO (HDRezka Studio)
Language : Russian
Default : Yes
Forced : No

Audio #2
ID : 3
Format : AC-3
Format/Info : Audio Coding 3
Mode extension : CM (complete main)
Format settings, Endianness : Big
Codec ID : A_AC3
Duration : 1 h 45 min
Bit rate mode : Constant
Bit rate : 384 kb/s
Channel(s) : 6 channels
Channel positions : Front: L C R, Side: L R, LFE
Sampling rate : 48.0 kHz
Frame rate : 31.250 FPS (1536 spf)
Compression mode : Lossy
Delay relative to video : -43 ms
Stream size : 291 MiB (7%)
Language : English
Default : No
Forced : No

Text
ID : 4
Format : UTF-8
Codec ID : S_TEXT/UTF8
Codec ID/Info : UTF-8 Plain Text
Language : English
Default : No
Forced : No

Menu
00:00:00.000 : en:1
00:03:56.000 : en:2
00:14:17.000 : en:3
00:24:04.000 : en:4
00:33:26.000 : en:5
00:43:44.000 : en:6
00:53:08.000 : en:7
01:03:30.000 : en:8
01:13:16.000 : en:9
01:20:31.000 : en:10
01:28:10.000 : en:11
01:40:12.000 : en:12
Релиз от:

Автор релиза: pb.wtf



Скачать Крипто через торрент https://b.radikal.ru/b31/1904/79/9c79f920a9a0.jpg Скачать фильм Крипто через торрент бесплантно в хорошем качестве Описание: В центре истории находится Мартин — сотрудник банка, работающий в отделе по борьбе с отмыванием денег. Несмотря на то, что ... 10 10 8
Info! Золотая раздача, скачанное не засчитывается.
Торрент: Зарегистрирован [2019-04-27 00:53] · скачан: 208 раз
Статус: T временная
Размер: 3.86 GB
Как cкачать? Как скачать Крипто через торрент | qTorrent

% Раздел Тема Автор DL S | L
T Фильмы 2019 [DVDrip, WEB-DLRip, HDrip] (DUB, MVO) [ 1.46 GB ] Крипто / Crypto [2019 HDRip] MVO [HDRezka Studio] - ExKinoRay Enigma2010 Скачать
45 | 2


>> Регистрируемся здесь <<






Отзывы и комментарии о схеме читаем и пишем здесь: ---> Отзывы и комментарии о схеме

Новые благодарочки в телеграм довольных пользователей:
скриншот   скриншот   скриншот   скриншот   скриншот
    Дорогой пользователь! Огромная просьба, поблагодарите релизера, оцените раздачу и оставьте свои комментарий, если Вы скачали Крипто через торрент бесплатно! Внесите свою лепту в развитие PiratBit!
    Комментировать посты могут только пользователи прошедшие не сложную регистрацию
    Показать сообщения:    

    Крипто через торрент
    Скачать бесплатно Крипто
    Крипто скачать торрент
    Крипто смотреть онлайн
    Cкачать фильм Крипто бесплатно
    Крипто скачать торрент в хорошем качестве
    Крипто смотреть онлайн бесплатно в хорошем качестве


    Вы не можете начинать темы
    Вы не можете отвечать на сообщения
    Вы не можете редактировать свои сообщения
    Вы не можете удалять свои сообщения
    Вы не можете голосовать в опросах
    Вы не можете прикреплять файлы к сообщениям
    Вы можете скачивать файлы