Ссылка на приватное зеркало всего за 1$. Внимание количество ограничено!!!

OK

1+1

iTunes

мы

OK

1

WEB-DLRip

Джокер

Пифагор

Ведьмак / The Witcher сериал

Лицензия

ПШазам

ОК

Оно 2

iTunes

30
pack

Вам бонус

ВАЖНО

!!Акция!!

Alien_RageХит недели

RePack

Resident Evil 21

ИГРА 18+

pack

RePack

jed

RePack

fifa19

RePack

Assassins Creed: Odyssey

RePack

NEED FOR SPEED™ PAYBACK

4 сезон

9 сезон

Бесстыжие 9 сезон

Все сериалы

все сериалы на PB.wtf

RePack

FAR CRY 5
  

Женщина на войне / Kona fer í stríð / Woman At War (Бенедикт Эрлингссон) [2018, драма, комедия, WEB-DL 720p] MVO ["Синема УС"] pb.wtf

Женщина на войне через торрент pb.wtf

Раздают: 1 [ 0 KB/s ]
Размер: 4.02 GB | Добавлен: 8 мес. назад | Торрент скачан:31 раз
Скачать  

27-04-2019 01:19 Женщина на войне Скачать торрент  

Женщина на войне / Kona fer í stríð / Woman At War Год выпуска: 2018
Страна: Исландия, Франция, Украина
Жанр: драма, комедия
Продолжительность: 01:41:18
Перевод: Любительский (многоголосый) | "Синема УС"
Субтитры: отсутствуют

Режиссер: Бенедикт Эрлингссон

rating

В ролях:

Халльдоура Гейрхардсдоуттир, Йохан Сигуроарсон, Хуан Камилло Роман Эстрада, Йорундур Рагнарссон, Сольвейг Арнарсдоттир, Гуннар Берси Бьёрнссон, Хельга Брага Йонсдоттир, Шарлотта Бювинг, Ирина Данилейко, Вала Кристин Эйриксдоттир

Описание:

50-летняя Халла объявляет войну местному алюминиевому заводу, который угрожает экологии. Она рискует всем, чтобы защитить исландские предгорья, но ситуация меняется, когда в её жизни появляется девочка-сирота.

Качество: WEB-DL 720p
Формат: MKV

Видео: h.264,5 300 Кбит/с, 1280x536
Аудио: Русский, (AC3, 2 ch, 384 Кбит/с)
скриншот  скриншот  скриншот  

Общее
Уникальный идентификатор : 218237047939867607229659272338714844088 (0xA42EED330CB8275B84617DA58C2ADBB8)
Полное имя : D:\WomanAtWar.2O18.P.WEB-DL.72Op.mkv
Формат : Matroska
Версия формата : Version 2
Размер файла : 4,02 Гбайт
Продолжительность : 1 ч. 41 м.
Режим общего битрейта : Переменный
Общий поток : 5686 Кбит/сек
Дата кодирования : UTC 2019-04-26 03:40:21
Программа кодирования : mkvmerge v8.3.0 ('Over the Horizon') 64bit
Библиотека кодирования : libebml v1.3.1 + libmatroska v1.4.2

Видео
Идентификатор : 1
Формат : AVC
Формат/Информация : Advanced Video Codec
Профиль формата : High@L4.1
Параметр CABAC формата : Да
Параметр RefFrames формата : 4 кадра
Идентификатор кодека : V_MPEG4/ISO/AVC
Продолжительность : 1 ч. 41 м.
Вид битрейта : Переменный
Битрейт : 5300 Кбит/сек
Максимальный битрейт : 6000 Кбит/сек
Ширина : 1280 пикселей
Высота : 536 пикселей
Соотношение сторон : 2,40:1
Режим частоты кадров : Постоянный
Частота кадров : 23,976 (24000/1001) кадра/сек
Стандарт вещания : Component
Цветовое пространство : YUV
Субдискретизация насыщенности : 4:2:0
Битовая глубина : 8 бит
Тип развёртки : Прогрессивная
Бит/(Пиксели*Кадры) : 0.315
Размер потока : 3,67 Гбайт (91%)
Default : Да
Forced : Нет
Цветовой диапазон : Limited
Основные цвета : BT.709
Характеристики трансфера : BT.709
Коэффициенты матрицы : BT.709

Аудио
Идентификатор : 2
Формат : AC-3
Формат/Информация : Audio Coding 3
Расширение режима : CM (complete main)
Параметр Endianness формата : Big
Идентификатор кодека : A_AC3
Продолжительность : 1 ч. 41 м.
Вид битрейта : Постоянный
Битрейт : 384 Кбит/сек
Каналы : 2 канала
Расположение каналов : Front: L R
Частота : 48,0 КГц
Частота кадров : 31,250 кадров/сек (1536 spf)
Метод сжатия : С потерями
Размер потока : 278 Мбайт (7%)
Default : Да
Forced : Нет

pb.wtf



Скачать Женщина на войне через торрент https://d.radikal.ru/d28/1904/4f/87134b0d6f19.jpg Скачать фильм Женщина на войне через торрент бесплантно в хорошем качестве Описание: 50-летняя Халла объявляет войну местному алюминиевому заводу, который угрожает экологии. Она рискует всем, чтобы защитить ... 10 10 2
Торрент: Зарегистрирован [2019-04-27 01:19] · скачан: 31 раз
Статус: T временная
Размер: 4.02 GB
Как cкачать? Как скачать Женщина на войне через торрент | qTorrent

% Раздел Тема Автор DL S | L
Фильмы с авторской озвучкой [ 7.93 GB ] Женщина на войне / Kona fer í stríð / Woman At War [2018 BDRip 1080p] AVO [А.Важенин [BadBajo] bober100 Скачать
1 | 0
T Фильмы (мультфильмы) cо спонсором показа (Новинки AVI/MKV) [ 1.37 GB ] Женщина на войне / Kona fer í stríð / Woman At War [2018 WEB-DLRip] MVO ["Синема УС"] bober100 Скачать
1 | 0

28-11-2019 20:33  

Отключить всю рекламу на сайте

    Дорогой пользователь! Огромная просьба, поблагодарите релизера, оцените раздачу и оставьте свои комментарий, если Вы скачали Женщина на войне через торрент бесплатно! Внесите свою лепту в развитие PiratBit!
    Комментировать посты могут только пользователи прошедшие не сложную регистрацию
    Показать сообщения:    

    Женщина на войне через торрент
    Скачать бесплатно Женщина на войне
    Женщина на войне скачать торрент
    Женщина на войне смотреть онлайн
    Cкачать фильм Женщина на войне бесплатно
    Женщина на войне скачать торрент в хорошем качестве
    Женщина на войне смотреть онлайн бесплатно в хорошем качестве


    Вы не можете начинать темы
    Вы не можете отвечать на сообщения
    Вы не можете редактировать свои сообщения
    Вы не можете удалять свои сообщения
    Вы не можете голосовать в опросах
    Вы не можете прикреплять файлы к сообщениям
    Вы можете скачивать файлы