Мега распродажа FORZA HORIZON 4 ULTIMATE+ВСЕ DLC+ОНЛАЙН всего за 499р. 349 руб. (супер цена). Внимание количество ограничено!!!

iTunes

1+1

iTunes

мы

iTunes

1

1 сезон

Чернобыль

1 сезон

Ральф против интернета

Лицензия

ПШазам

8 сезон

Игра престолов

Лицензия

30
pack

ВАЖНО

!!Акция!!

Alien_RageХит недели

RePack

Resident Evil 21

ИГРА 18+

pack

RePack

Metro:Exodus

!!Акция!!

Alien_Rage

RePack

fifa19

RePack

Assassins Creed: Odyssey

RePack

NEED FOR SPEED™ PAYBACK

3 сезон

9 сезон

Бесстыжие 9 сезон

Все сериалы

все сериалы на PB.wtf

RePack

FAR CRY 5
Ребята, катастрофически не хватает 2730р. для оплаты серверов за ИЮНЬ (всвязи с блокировками трафик упал в 3 раза), 1-2р., выручайте.
  

Мастер Z: Наследие Ип Мана / Ye wen wai zhuan: Zhang tian zhi / Master Z: Ip Man Legacy (Юэнь Ву-Пин) [2018, боевик, BDRip 1080p] MVO [HDRezka Studio] - ExKinoRay pb.wtf

Мастер Z: Наследие Ип Мана через торрент pb.wtf

Раздают: 69 [ 967 KB/s ] Качают: 3 [ 7 MB/s ]
Размер: 9.62 GB | Добавлен: 2 мес. 20 д. назад | Торрент скачан:63 раза
Скачать  

27-04-2019 03:59 Мастер Z: Наследие Ип Мана Скачать торрент  

Название: Мастер Z: Наследие Ип Мана
Оригинальное название: Ye wen wai zhuan: Zhang tian zhi / Master Z: Ip Man Legacy
Год выпуска: 2018
Жанр: Боевик
Режиссер: Юэнь Ву-Пин
В ролях: Макс Чжан, Дэйв Батиста, Мишель Йео, Тони Джа, Крисси Чау, Кевин Чэн, Син Юй, Филип Кюн

Описание: После проигранного поединка Ип Ману, Чонг Тин Чи принимает решение закрыть академию боевых искусств, чтобы вести простую жизнь владельца маленького продуктового магазина. Но вскоре Чонг сталкивается с очередными неприятностями, когда спасает девушку от банды головорезов, которые подчиняются могущественному гангстеру Киту. Спустя некоторое время преступник начинает мстить, сжигая дом и магазин Тин Чи. Когда мастеру боевых искусств не удается мирным путем урегулировать конфликт, он решает вступить в открытое противостояние с Китом и его бандой...

rating

Выпущено: Китай, Гонконг, Mandarin Motion Pictures
Продолжительность: 01:45:54
Перевод: Профессиональный (многоголосый, закадровый) | HDRezka Studio
Субтитры: Английские

БЕЗ КАКОЙ-ЛИБО РЕКЛАМЫ!

Формат: MKV
Качество: BDRip 1080p
Видео: MPEG-4 AVC, 1920x858 (2.25:1), 24.000 fps, 10.8 Mb/s, 0.273 bit/pixel
Аудио 1: 48 kHz, AC3, 2.0, 256 Kbps | MVO | RUS |
Аудио 2: 48 kHz, DTS, 5.1, 1509 Kbps | Оригинал | Chinese
General
Unique ID : 223183195154945726734205433885269519145 (0xA7E78515C2C1ECAF8D10F99EA7C96B29)
Complete name : F:\Master.Z.Ip.Man.Legacy.2018.MVO.1080p.BluRay.ExKinoRay.mkv
Format : Matroska
Format version : Version 2
File size : 9.62 GiB
Duration : 1 h 47 min
Overall bit rate : 12.8 Mb/s
Movie name : Master Z Ip Man Legacy 2018 from ExKinoRay
Encoded date : UTC 2019-04-27 02:23:16
Writing application : mkvmerge v5.6.0 ('Kenya Kane') built on May 27 2012 16:44:04
Writing library : libebml v1.2.3 + libmatroska v1.3.0

Video
ID : 1
Format : AVC
Format/Info : Advanced Video Codec
Format profile : High@L4.1
Format settings, CABAC : Yes
Format settings, ReFrames : 4 frames
Codec ID : V_MPEG4/ISO/AVC
Duration : 1 h 47 min
Bit rate : 10.8 Mb/s
Width : 1 920 pixels
Height : 858 pixels
Display aspect ratio : 2.25:1
Frame rate mode : Constant
Frame rate : 24.000 FPS
Color space : YUV
Chroma subsampling : 4:2:0
Bit depth : 8 bits
Scan type : Progressive
Bits/(Pixel*Frame) : 0.273
Stream size : 8.10 GiB (84%)
Title : Master Z Ip Man Legacy 2018 from CHD
Writing library : x264 core 155 r2867+74 66b5600 t_mod_Custom_2 [8-bit@all X86_64]
Encoding settings : cabac=1 / ref=4 / deblock=1:-3:-3 / analyse=0x3:0x133 / me=umh / subme=10 / psy=1 / fade_compensate=0.00 / psy_rd=0.95:0.10 / mixed_ref=1 / me_range=48 / chroma_me=1 / trellis=2 / 8x8dct=1 / cqm=0 / deadzone=21,11 / fast_pskip=0 / chroma_qp_offset=-4 / threads=18 / lookahead_threads=3 / sliced_threads=0 / nr=0 / decimate=1 / interlaced=0 / bluray_compat=0 / constrained_intra=0 / fgo=0 / bframes=8 / b_pyramid=2 / b_adapt=2 / b_bias=0 / direct=3 / weightb=1 / open_gop=0 / weightp=2 / keyint=250 / keyint_min=24 / scenecut=40 / intra_refresh=0 / rc_lookahead=60 / rc=crf / mbtree=0 / crf=19.0000 / qcomp=0.70 / qpmin=0:0:0 / qpmax=69:69:69 / qpstep=4 / vbv_maxrate=35000 / vbv_bufsize=35000 / crf_max=0.0 / nal_hrd=none / filler=0 / ip_ratio=1.40 / pb_ratio=1.30 / aq=3:1.00 / aq-sensitivity=10.00 / aq-factor=1.00:1.00:1.00 / aq2=0 / aq3=2:[0.50:0.50]:[0.50:0.50]:[0.50:0.50]:[0.50:0.50] / aq3-sensitivity=10.00 / aq3-factor=[1.00:1.00]:[1.00:1.00]:[1.00:1.00] / aq3-boundary=192:64:24
Language : Chinese
Default : Yes
Forced : No

Audio #1
ID : 2
Format : AC-3
Format/Info : Audio Coding 3
Mode extension : CM (complete main)
Format settings, Endianness : Big
Codec ID : A_AC3
Duration : 1 h 47 min
Bit rate mode : Constant
Bit rate : 256 kb/s
Channel(s) : 2 channels
Channel positions : Front: L R
Sampling rate : 48.0 kHz
Frame rate : 31.250 FPS (1536 spf)
Compression mode : Lossy
Stream size : 197 MiB (2%)
Title : MVO (HDRezka Studio)
Language : Russian
Default : Yes
Forced : No

Audio #2
ID : 3
Format : DTS
Format/Info : Digital Theater Systems
Mode : 16
Format settings, Endianness : Big
Codec ID : A_DTS
Duration : 1 h 47 min
Bit rate mode : Constant
Bit rate : 1 509 kb/s
Channel(s) : 6 channels
Channel positions : Front: L C R, Side: L R, LFE
Sampling rate : 48.0 kHz
Frame rate : 93.750 FPS (512 spf)
Bit depth : 24 bits
Compression mode : Lossy
Stream size : 1.13 GiB (12%)
Title : Original
Language : Chinese
Default : No
Forced : No

Text
ID : 4
Format : UTF-8
Codec ID : S_TEXT/UTF8
Codec ID/Info : UTF-8 Plain Text
Language : English
Default : No
Forced : No

Menu
00:00:00.000 : en:Chapter 01
00:05:47.000 : en:Chapter 02
00:11:29.833 : en:Chapter 03
00:15:46.375 : en:Chapter 04
00:19:10.416 : en:Chapter 05
00:28:58.583 : en:Chapter 06
00:33:33.250 : en:Chapter 07
00:38:34.416 : en:Chapter 08
00:48:14.708 : en:Chapter 09
00:53:38.833 : en:Chapter 10
01:00:10.041 : en:Chapter 11
01:04:38.458 : en:Chapter 12
01:09:35.583 : en:Chapter 13
01:19:20.500 : en:Chapter 14
01:22:55.916 : en:Chapter 15
01:27:42.750 : en:Chapter 16
01:34:36.541 : en:Chapter 17
01:42:54.666 : en:Chapter 18
Релиз от:

Автор релиза: pb.wtf



Скачать Мастер Z: Наследие Ип Мана через торрент https://a.radikal.ru/a36/1904/65/b5e6f76df730.jpg Скачать фильм Мастер Z: Наследие Ип Мана через торрент бесплантно в хорошем качестве Описание: После проигранного поединка Ип Ману, Чонг Тин Чи принимает решение закрыть академию боевых искусств, чтобы вести простую жизнь ... 9.8 10 5
Info! Золотая раздача, скачанное не засчитывается.
Торрент: Зарегистрирован [2019-04-27 03:59] · скачан: 63 раз
Статус: T временная
Размер: 9.62 GB
Как cкачать? Как скачать Мастер Z: Наследие Ип Мана через торрент | qTorrent

% Раздел Тема Автор DL S | L
T Азиатские фильмы [ 1.37 GB ] Мастер Z: Наследие Ип Мана / Ye wen wai zhuan: Zhang tian zhi / Master Z: Ip Man Legacy [2018 BDRip] MVO [HDRezka Studio] - ExKinoRay Enigma2010 Скачать
3 | 0


>> Регистрируемся здесь <<






Отзывы и комментарии о схеме читаем и пишем здесь: ---> Отзывы и комментарии о схеме

Новые благодарочки в телеграм довольных пользователей:
скриншот   скриншот   скриншот   скриншот   скриншот
    Дорогой пользователь! Огромная просьба, поблагодарите релизера, оцените раздачу и оставьте свои комментарий, если Вы скачали Мастер Z: Наследие Ип Мана через торрент бесплатно! Внесите свою лепту в развитие PiratBit!
    Комментировать посты могут только пользователи прошедшие не сложную регистрацию
    Показать сообщения:    

    Мастер Z: Наследие Ип Мана через торрент
    Скачать бесплатно Мастер Z: Наследие Ип Мана
    Мастер Z: Наследие Ип Мана скачать торрент
    Мастер Z: Наследие Ип Мана смотреть онлайн
    Cкачать фильм Мастер Z: Наследие Ип Мана бесплатно
    Мастер Z: Наследие Ип Мана скачать торрент в хорошем качестве
    Мастер Z: Наследие Ип Мана смотреть онлайн бесплатно в хорошем качестве


    Вы не можете начинать темы
    Вы не можете отвечать на сообщения
    Вы не можете редактировать свои сообщения
    Вы не можете удалять свои сообщения
    Вы не можете голосовать в опросах
    Вы не можете прикреплять файлы к сообщениям
    Вы можете скачивать файлы