Ссылка на приватное зеркало всего за 1$. Внимание количество ограничено!!!

OK

1+1

iTunes

мы

OK

1

WEB-DLRip

Джокер

Пифагор

Ведьмак / The Witcher сериал

iTunes

ПШазам

ОК

Оно 2

iTunes

30
pack

Вам бонус

ВАЖНО

!!Акция!!

Alien_RageХит недели

RePack

Resident Evil 21

ИГРА 18+

pack

RePack

jed

RePack

fifa19

RePack

Assassins Creed: Odyssey

RePack

NEED FOR SPEED™ PAYBACK

4 сезон

9 сезон

Бесстыжие 9 сезон

Все сериалы

все сериалы на PB.wtf

RePack

FAR CRY 5
  

Возвращение китайских миротворцев: война волков / Return of Special Forces War of Wolf / Special Forces Return (Хоу Цзе) [2018, Драма, боевик, триллер, WEBRip 720p] MVO [КОЛОБОК] pb.wtf

Возвращение китайских миротворцев: война волков через торрент pb.wtf

Размер: 2.84 GB | Добавлен: 8 мес. назад | Торрент скачан:30 раз
Скачать  

27-04-2019 04:15 Возвращение китайских миротворцев: война волков Скачать торрент  

Возвращение китайских миротворцев: война волков
Return of Special Forces War of Wolf / Special Forces Return
Год выпуска: 2018
Страна: Китай
Жанр: Драма, боевик, триллер
Продолжительность: 01:23:05
Перевод: Любительский (многоголосый) | КОЛОБОК
Субтитры: отсутствуют

Режиссер: Хоу Цзе



В ролях: Фу Чэнпэн, Жэнь Кэно, Юй Янь, Сюэ Цзинжуй, Чжан Цзинь, Ян Шу, Сяо Хоубинь, Ли Фэй, Ван Фэй

Описание: Через несколько лет после провальной операции в Лианастане, лидер отряда китайских миротворцев по прозвищу Царь Волков собирает оставшихся в живых бравых воинов-волков, чтобы покарать Сан Куня, коррумпированного офицера наркоконтроля, из-за которого миротворцы когда-то угодили в западню наркоторговцев. Но не всё так просто, ведь правая рука Сан Куня - русская девушка-снайпер Ася, прошедшая спецподготовку в застенках ФСБ.

Качество: WEBRip 720p
Формат: MKV

Видео: h.264,4 500 Кбит/с, 1280x544
Аудио: Русский, (AC3, 2 ch, 384 Кбит/с)
скриншот  скриншот  скриншот  

Общее
Уникальный идентификатор : 183031793390539046438456013743617716638 (0x89B2A4237E194A62BDC4716581DFB19E)
Полное имя : D:\ReturnofSpecialForcesWarof Wolf.2018.Pk.WEBRip.72Op.mkv
Формат : Matroska
Версия формата : Version 2
Размер файла : 2,84 Гбайт
Продолжительность : 1 ч. 23 м.
Режим общего битрейта : Переменный
Общий поток : 4886 Кбит/сек
Дата кодирования : UTC 2019-04-26 08:08:11
Программа кодирования : mkvmerge v8.3.0 ('Over the Horizon') 64bit
Библиотека кодирования : libebml v1.3.1 + libmatroska v1.4.2

Видео
Идентификатор : 1
Формат : AVC
Формат/Информация : Advanced Video Codec
Профиль формата : High@L4.1
Параметр CABAC формата : Да
Параметр RefFrames формата : 4 кадра
Идентификатор кодека : V_MPEG4/ISO/AVC
Продолжительность : 1 ч. 23 м.
Вид битрейта : Переменный
Битрейт : 4500 Кбит/сек
Максимальный битрейт : 5000 Кбит/сек
Ширина : 1280 пикселей
Высота : 544 пикселя
Соотношение сторон : 2,35:1
Режим частоты кадров : Постоянный
Частота кадров : 23,976 (24000/1001) кадра/сек
Стандарт вещания : Component
Цветовое пространство : YUV
Субдискретизация насыщенности : 4:2:0
Битовая глубина : 8 бит
Тип развёртки : Прогрессивная
Бит/(Пиксели*Кадры) : 0.264
Размер потока : 2,56 Гбайт (90%)
Default : Да
Forced : Нет
Цветовой диапазон : Limited
Основные цвета : BT.709
Характеристики трансфера : BT.709
Коэффициенты матрицы : BT.709

Аудио
Идентификатор : 2
Формат : AC-3
Формат/Информация : Audio Coding 3
Расширение режима : CM (complete main)
Параметр Endianness формата : Big
Идентификатор кодека : A_AC3
Продолжительность : 1 ч. 23 м.
Вид битрейта : Постоянный
Битрейт : 384 Кбит/сек
Каналы : 2 канала
Расположение каналов : Front: L R
Частота : 48,0 КГц
Частота кадров : 31,250 кадров/сек (1536 spf)
Метод сжатия : С потерями
Размер потока : 228 Мбайт (8%)
Default : Да
Forced : Нет

pb.wtf



Скачать Возвращение китайских миротворцев: война волков через торрент https://a.radikal.ru/a38/1904/b3/7a8de91dafa9.jpg Скачать фильм Возвращение китайских миротворцев: война волков через торрент бесплантно в хорошем качестве Описание: Через несколько лет после провальной операции в Лианастане, лидер отряда китайских миротворцев по прозвищу Царь Волков собирает ... 10 10 4
Торрент: Зарегистрирован [2019-04-27 04:15] · скачан: 30 раз
Статус: T временная
Размер: 2.84 GB
Как cкачать? Как скачать Возвращение китайских миротворцев: война волков через торрент | qTorrent

% Раздел Тема Автор DL S | L
T Фильмы (мультфильмы) cо спонсором показа (Новинки AVI/MKV) [ 1.37 GB ] Возвращение китайских миротворцев: война волков / Return of Special Forces War of Wolf / Special Forces Return [2018 WEBRip] MVO [КОЛОБОК] bober100 Скачать
1 | 0

28-11-2019 20:33  

Отключить всю рекламу на сайте

    Дорогой пользователь! Огромная просьба, поблагодарите релизера, оцените раздачу и оставьте свои комментарий, если Вы скачали Возвращение китайских миротворцев: война волков через торрент бесплатно! Внесите свою лепту в развитие PiratBit!
    Комментировать посты могут только пользователи прошедшие не сложную регистрацию
    Показать сообщения:    

    Возвращение китайских миротворцев: война волков через торрент
    Скачать бесплатно Возвращение китайских миротворцев: война волков
    Возвращение китайских миротворцев: война волков скачать торрент
    Возвращение китайских миротворцев: война волков смотреть онлайн
    Cкачать фильм Возвращение китайских миротворцев: война волков бесплатно
    Возвращение китайских миротворцев: война волков скачать торрент в хорошем качестве
    Возвращение китайских миротворцев: война волков смотреть онлайн бесплатно в хорошем качестве


    Вы не можете начинать темы
    Вы не можете отвечать на сообщения
    Вы не можете редактировать свои сообщения
    Вы не можете удалять свои сообщения
    Вы не можете голосовать в опросах
    Вы не можете прикреплять файлы к сообщениям
    Вы можете скачивать файлы