Ссылка на приватное зеркало всего за 1$. Внимание количество ограничено!!!

OK

1+1

iTunes

мы

OK

1

WEB-DLRip

Джокер

Пифагор

Ведьмак / The Witcher сериал

iTunes

ПШазам

ОК

Оно 2

iTunes

30
pack

Вам бонус

ВАЖНО

!!Акция!!

Alien_RageХит недели

RePack

Resident Evil 21

ИГРА 18+

pack

RePack

jed

RePack

fifa19

RePack

Assassins Creed: Odyssey

RePack

NEED FOR SPEED™ PAYBACK

4 сезон

9 сезон

Бесстыжие 9 сезон

Все сериалы

все сериалы на PB.wtf

RePack

FAR CRY 5
  

Окружной суд: Часть 2 / Landgericht (Маттиас Гласнер) [2017, драма, история, WEB-DL 720p] MVO ["Синема УС"] pb.wtf

Окружной суд: Часть 2 через торрент pb.wtf

Размер: 4.34 GB | Добавлен: 9 мес. назад | Торрент скачан:7 раз
Скачать  

27-04-2019 04:43 Окружной суд: Часть 2 Скачать торрент  

Окружной суд: Часть 2 / LandgerichtГод выпуска: 2017
Страна: Германия, Чехия, Куба
Жанр: драма, история
Продолжительность: 01:49:09
Перевод: Любительский (многоголосый) | "Синема УС"
Субтитры: отсутствуют

Режиссер: Маттиас Гласнер

rating

В ролях: Рональд Церфельд, Йоханна Вокалек, Саския Ривз, Барбара Ауэр, Феликс Кларе, Ева Лёбау, Ульрике Кринер, Катарина Вакернагель, Кристиан Беркель, Михаэль Ротшопф

Описание: Жизнь судьи немецко-еврейского происхождения и все его семьи оказывается разрушена нацистскими преследованиями 1930-х годов. Детей отправляют в Англию, чтобы спасти от режима, а главный герой отправляется в кубинскую ссылку, в то время как его жена остается в Германии.

Качество: WEB-DL 720p
Формат: MKV

Видео: 5 314 Кбит/с, 1280x720
Аудио#1: Русский, (AC3, 2 ch, 384 Кбит/с)
скриншот  скриншот  скриншот  

Общее
Уникальный идентификатор : 192822838485882641352517677139383231128 (0x911053EEA4E5EC33B6FBE517E3672298)
Полное имя : D:\Landgericht.Part.2.2017.P.WEB-DL.72Op.mkv
Формат : Matroska
Версия формата : Version 2
Размер файла : 4,34 Гбайт
Продолжительность : 1 ч. 49 м.
Режим общего битрейта : Переменный
Общий поток : 5700 Кбит/сек
Дата кодирования : UTC 2019-04-26 03:35:51
Программа кодирования : mkvmerge v8.3.0 ('Over the Horizon') 64bit
Библиотека кодирования : libebml v1.3.1 + libmatroska v1.4.2

Видео
Идентификатор : 1
Формат : AVC
Формат/Информация : Advanced Video Codec
Профиль формата : High@L4.1
Параметр CABAC формата : Да
Параметр RefFrames формата : 4 кадра
Идентификатор кодека : V_MPEG4/ISO/AVC
Продолжительность : 1 ч. 49 м.
Вид битрейта : Переменный
Битрейт : 5314 Кбит/сек
Максимальный битрейт : 6000 Кбит/сек
Ширина : 1280 пикселей
Высота : 720 пикселей
Соотношение сторон : 16:9
Режим частоты кадров : Постоянный
Частота кадров : 23,976 (24000/1001) кадра/сек
Стандарт вещания : Component
Цветовое пространство : YUV
Субдискретизация насыщенности : 4:2:0
Битовая глубина : 8 бит
Тип развёртки : Прогрессивная
Бит/(Пиксели*Кадры) : 0.235
Размер потока : 3,96 Гбайт (91%)
Default : Да
Forced : Нет
Цветовой диапазон : Limited
Основные цвета : BT.709
Характеристики трансфера : BT.709
Коэффициенты матрицы : BT.709

Аудио
Идентификатор : 2
Формат : AC-3
Формат/Информация : Audio Coding 3
Расширение режима : CM (complete main)
Параметр Endianness формата : Big
Идентификатор кодека : A_AC3
Продолжительность : 1 ч. 49 м.
Вид битрейта : Постоянный
Битрейт : 384 Кбит/сек
Каналы : 2 канала
Расположение каналов : Front: L R
Частота : 48,0 КГц
Частота кадров : 31,250 кадров/сек (1536 spf)
Метод сжатия : С потерями
Размер потока : 299 Мбайт (7%)
Default : Да
Forced : Нет

pb.wtf



Скачать Окружной суд: Часть 2 через торрент https://b.radikal.ru/b03/1904/41/c18ea7ce75ea.jpg Скачать фильм Окружной суд: Часть 2 через торрент бесплантно в хорошем качестве Описание: Жизнь судьи немецко-еврейского происхождения и все его семьи оказывается разрушена нацистскими преследованиями 1930-х годов. ... 10 10 2
Торрент: Зарегистрирован [2019-04-27 04:43] · скачан: 7 раз
Статус: T временная
Размер: 4.34 GB
Как cкачать? Как скачать Окружной суд: Часть 2 через торрент | qTorrent

% Раздел Тема Автор DL S | L
T Фильмы (мультфильмы) cо спонсором показа (Новинки AVI/MKV) [ 1.46 GB ] Окружной суд: Часть 2 / Landgericht [2017 история WEB-DLRip] MVO ["Синема УС"] bober100 Скачать
1 | 0

28-11-2019 20:33  

Отключить всю рекламу на сайте


    Дорогой пользователь! Огромная просьба, поблагодарите релизера, оцените раздачу и оставьте свои комментарий, если Вы скачали Окружной суд: Часть 2 через торрент бесплатно! Внесите свою лепту в развитие PiratBit!
    Комментировать посты могут только пользователи прошедшие не сложную регистрацию
    Показать сообщения:    

    Окружной суд: Часть 2 через торрент
    Скачать бесплатно Окружной суд: Часть 2
    Окружной суд: Часть 2 скачать торрент
    Окружной суд: Часть 2 смотреть онлайн
    Cкачать фильм Окружной суд: Часть 2 бесплатно
    Окружной суд: Часть 2 скачать торрент в хорошем качестве
    Окружной суд: Часть 2 смотреть онлайн бесплатно в хорошем качестве


    Вы не можете начинать темы
    Вы не можете отвечать на сообщения
    Вы не можете редактировать свои сообщения
    Вы не можете удалять свои сообщения
    Вы не можете голосовать в опросах
    Вы не можете прикреплять файлы к сообщениям
    Вы можете скачивать файлы