Ссылка на приватное зеркало всего за 1$. Внимание количество ограничено!!!

OK

1+1

iTunes

мы

OK

1

WEB-DLRip

Джокер

Пифагор

Ведьмак / The Witcher сериал

iTunes

ПШазам

ОК

Оно 2

iTunes

30
pack

Вам бонус

ВАЖНО

!!Акция!!

Alien_RageХит недели

RePack

Resident Evil 21

ИГРА 18+

pack

RePack

jed

RePack

fifa19

RePack

Assassins Creed: Odyssey

RePack

NEED FOR SPEED™ PAYBACK

4 сезон

9 сезон

Бесстыжие 9 сезон

Все сериалы

все сериалы на PB.wtf

RePack

FAR CRY 5
  

Тайна утреннего шоу: отсчёт до убийства / Morning Show Mysteries: Countdown to Murder (Кевин Фэйр) [2019, Детектив, HDTVRip 720p] MVO ["Синема УС"] pb.wtf

Тайна утреннего шоу: отсчёт до убийства через торрент pb.wtf

Размер: 2.91 GB | Добавлен: 8 мес. назад | Торрент скачан:27 раз
Скачать  

27-04-2019 04:58 Тайна утреннего шоу: отсчёт до убийства Скачать торрент  

Тайна утреннего шоу: отсчёт до убийства / Morning Show Mysteries: Countdown to Murder Год выпуска: 2019
Страна: США
Жанр: Детектив
Продолжительность: 01:25:16
Перевод: Любительский (многоголосый) | "Синема УС"
Субтитры: отсутствуют

Режиссер: Кевин Фэйр

rating

В ролях: Холли Робинсон Пит, Рик Фокс, Карен Робинсон, Тара Уилсон, Дэвид Паэткау

Описание: Ведущая утреннего шоу и шеф-повар Билли Блэссингс и детектив Йен Джексон расследуют дело об убийстве владельца супермаркета и одновременно пытаются сохранить свои отношения.

Качество: HDTVRip 720p
Формат: MKV

Видео: h.264,4 492 Кбит/с, 1280x720
Аудио: Русский, (AC3, 2 ch, 384 Кбит/с)
скриншот  скриншот  скриншот  

Общее
Уникальный идентификатор : 216029370446247489352506905069433865342 (0xA285BE4B97C3EE89A6BD8F0B0693447E)
Полное имя : D:\MorningShowMysteriesCountdowntoMurder.2O19.P.HDTV.72Op.mkv
Формат : Matroska
Версия формата : Version 2
Размер файла : 2,91 Гбайт
Продолжительность : 1 ч. 25 м.
Режим общего битрейта : Переменный
Общий поток : 4878 Кбит/сек
Дата кодирования : UTC 2019-04-26 06:08:16
Программа кодирования : mkvmerge v8.3.0 ('Over the Horizon') 64bit
Библиотека кодирования : libebml v1.3.1 + libmatroska v1.4.2

Видео
Идентификатор : 1
Формат : AVC
Формат/Информация : Advanced Video Codec
Профиль формата : High@L4.1
Параметр CABAC формата : Да
Параметр RefFrames формата : 4 кадра
Идентификатор кодека : V_MPEG4/ISO/AVC
Продолжительность : 1 ч. 25 м.
Вид битрейта : Переменный
Битрейт : 4492 Кбит/сек
Максимальный битрейт : 5000 Кбит/сек
Ширина : 1280 пикселей
Высота : 720 пикселей
Соотношение сторон : 16:9
Режим частоты кадров : Постоянный
Частота кадров : 23,976 (24000/1001) кадра/сек
Стандарт вещания : Component
Цветовое пространство : YUV
Субдискретизация насыщенности : 4:2:0
Битовая глубина : 8 бит
Тип развёртки : Прогрессивная
Бит/(Пиксели*Кадры) : 0.199
Размер потока : 2,62 Гбайт (90%)
Default : Да
Forced : Нет
Цветовой диапазон : Limited
Основные цвета : BT.709
Характеристики трансфера : BT.709
Коэффициенты матрицы : BT.709

Аудио
Идентификатор : 2
Формат : AC-3
Формат/Информация : Audio Coding 3
Расширение режима : CM (complete main)
Параметр Endianness формата : Big
Идентификатор кодека : A_AC3
Продолжительность : 1 ч. 25 м.
Вид битрейта : Постоянный
Битрейт : 384 Кбит/сек
Каналы : 2 канала
Расположение каналов : Front: L R
Частота : 48,0 КГц
Частота кадров : 31,250 кадров/сек (1536 spf)
Метод сжатия : С потерями
Размер потока : 234 Мбайт (8%)
Default : Да
Forced : Нет

pb.wtf



Скачать Тайна утреннего шоу: отсчёт до убийства через торрент https://c.radikal.ru/c41/1904/3f/21365e03592f.jpg Скачать фильм Тайна утреннего шоу: отсчёт до убийства через торрент бесплантно в хорошем качестве Описание: Ведущая утреннего шоу и шеф-повар Билли Блэссингс и детектив Йен Джексон расследуют дело об убийстве владельца супермаркета и ... 10 10 2
Торрент: Зарегистрирован [2019-04-27 04:58] · скачан: 27 раз
Статус: T временная
Размер: 2.91 GB
Как cкачать? Как скачать Тайна утреннего шоу: отсчёт до убийства через торрент | qTorrent

% Раздел Тема Автор DL S | L
T Фильмы (мультфильмы) cо спонсором показа (Новинки AVI/MKV) [ 1.37 GB ] Тайна утреннего шоу: отсчёт до убийства / Morning Show Mysteries: Countdown to Murder [2019 HDTVRip] MVO ["Синема УС"] bober100 Скачать
1 | 0

28-11-2019 20:33  

Отключить всю рекламу на сайте

    Дорогой пользователь! Огромная просьба, поблагодарите релизера, оцените раздачу и оставьте свои комментарий, если Вы скачали Тайна утреннего шоу: отсчёт до убийства через торрент бесплатно! Внесите свою лепту в развитие PiratBit!
    Комментировать посты могут только пользователи прошедшие не сложную регистрацию
    Показать сообщения:    

    Тайна утреннего шоу: отсчёт до убийства через торрент
    Скачать бесплатно Тайна утреннего шоу: отсчёт до убийства
    Тайна утреннего шоу: отсчёт до убийства скачать торрент
    Тайна утреннего шоу: отсчёт до убийства смотреть онлайн
    Cкачать фильм Тайна утреннего шоу: отсчёт до убийства бесплатно
    Тайна утреннего шоу: отсчёт до убийства скачать торрент в хорошем качестве
    Тайна утреннего шоу: отсчёт до убийства смотреть онлайн бесплатно в хорошем качестве


    Вы не можете начинать темы
    Вы не можете отвечать на сообщения
    Вы не можете редактировать свои сообщения
    Вы не можете удалять свои сообщения
    Вы не можете голосовать в опросах
    Вы не можете прикреплять файлы к сообщениям
    Вы можете скачивать файлы