Ссылка на приватное зеркало нашего сайта всего за 1$. Внимание количество ограничено!!!

2 сезон

iTunes

1 сезон

1

2 сезон

2 сезон

iTunes

1 сезон

RePack

30

Ultimate

ВАЖНО

ИГРА 18+

pack

RePack

MK11
pack

Забери бонус

RePack

jed

!!Акция!!

Alien_Rage

RePack

fifa19

RePack

Assassins Creed: Odyssey

RePack

NEED FOR SPEED™ PAYBACK

4 сезон

9 сезон

Бесстыжие 9 сезон

Все сериалы

все сериалы на PB.wtf

RePack

FAR CRY 5
  

Зыбучий песок / Quicksand / Сезон: 1 / Серии: 1-6 из 6 (Пер-Олав Соренсен) [2019, драма, WEB-DL 720p] [MVO] (HDRezka Studio) pb.wtf

Зыбучий песок через торрент pb.wtf

Размер: 4.64 GB | Добавлен: 1 год 6 мес. назад | Торрент скачан:29 раз
Скачать  

27-04-2019 05:00 Зыбучий песок Скачать торрент  

Зыбучий песок / Quicksand
«***»

Производство: Швеция
Год выпуска: 2019
Жанр: драма
Продолжительность: ~ 00:45:00 - серия
Перевод: Профессиональный (многоголосый, закадровый) *HDRezka Studio*

Режиссер: Пер-Олав Соренсен, Lisa Farzaneh

В ролях: Ханна Арден, Felix Sandman, Давид Денсик, Subheib Saleh, Анна Бьёрк, Ребека Хемсе, Iris Herngren, Каллед Мустонен, Маралл Насири, Ella Rappich
Описание фильма:
Массовая стрельба произошла в одной из элитных шведских школ. В этом преступлении обвиняют Майю. На суде все пытаются понять её мотивы и разобраться, кто же она — убийца или жертва?
скриншот  
Качество видео: WEB-DL 720p
Формат: MKV
Видео: V_MPEG4/ISO/AVC, 1280x720, ~2600 kbps
Аудио: AC-3, 48 kHz, 2 ch, 192 kbps *HDRezka Studio*
General
Unique ID : 225101628337511393522472124565913802165 (0xA958FF24C0BAA5AD9938DB096D8F15B5)
Complete name : F:\Quicksand.s01.720p.HDRezka\Quicksand.s01.e01.WEB-DL.720p.HDRezka.mkv
Format : Matroska
Format version : Version 4 / Version 2
File size : 907 MiB
Duration : 47 min 19 s
Overall bit rate mode : Variable
Overall bit rate : 2 678 kb/s
Movie name : Quicksand.s01.e01.WEB-DL.720p.HDRezka
Encoded date : UTC 2019-04-27 04:21:57
Writing application : mkvmerge v6.1.0 ('Old Devil') built on Mar 4 2013 09:10:42
Writing library : libebml v1.3.0 + libmatroska v1.4.0

Video
ID : 1
Format : AVC
Format/Info : Advanced Video Codec
Format profile : Main@L3.1
Format settings : CABAC / 3 Ref Frames
Format settings, CABAC : Yes
Format settings, RefFrames : 3 frames
Codec ID : V_MPEG4/ISO/AVC
Duration : 47 min 19 s
Bit rate mode : Variable
Bit rate : 2 433 kb/s
Nominal bit rate : 2 610 kb/s
Maximum bit rate : 3 915 kb/s
Width : 1 280 pixels
Height : 720 pixels
Display aspect ratio : 16:9
Frame rate mode : Constant
Frame rate : 24.000 FPS
Original frame rate : 25.000 FPS
Color space : YUV
Chroma subsampling : 4:2:0
Bit depth : 8 bits
Scan type : Progressive
Bits/(Pixel*Frame) : 0.110
Stream size : 824 MiB (91%)
Title : Quicksand.s01.e01.WEB-DL.720p.HDRezka
Writing library : x264 core 148 r2715 7e75228
Encoding settings : cabac=1 / ref=3 / deblock=1:0:0 / analyse=0x1:0x111 / me=umh / subme=10 / psy=1 / psy_rd=1.00:0.00 / mixed_ref=1 / me_range=24 / chroma_me=1 / trellis=2 / 8x8dct=0 / cqm=0 / deadzone=21,11 / fast_pskip=1 / chroma_qp_offset=-2 / threads=8 / lookahead_threads=1 / sliced_threads=0 / nr=0 / decimate=1 / interlaced=0 / bluray_compat=0 / stitchable=1 / constrained_intra=0 / bframes=2 / b_pyramid=0 / b_adapt=2 / b_bias=0 / direct=3 / weightb=1 / open_gop=0 / weightp=2 / keyint=50 / keyint_min=26 / scenecut=0 / intra_refresh=0 / rc_lookahead=50 / rc=2pass / mbtree=1 / bitrate=2610 / ratetol=1.0 / qcomp=0.50 / qpmin=6 / qpmax=51 / qpstep=4 / cplxblur=20.0 / qblur=0.5 / vbv_maxrate=3915 / vbv_bufsize=5220 / nal_hrd=vbr / filler=0 / ip_ratio=1.40 / aq=1:1.00
Default : Yes
Forced : No
Statistics Tags Issue : mkvmerge v19.0.0 ('Brave Captain') 64-bit 2019-04-07 12:15:26 / mkvmerge v6.1.0 ('Old Devil') built on Mar 4 2013 09:10:42 2019-04-27 04:21:57
FromStats_BitRate : 2588107
FromStats_Duration : 00:45:26.360000000
FromStats_FrameCount : 68159
FromStats_StreamSize : 882014198

Audio
ID : 2
Format : AC-3
Format/Info : Audio Coding 3
Format settings, Endianness : Big
Codec ID : A_AC3
Duration : 47 min 19 s
Bit rate mode : Constant
Bit rate : 192 kb/s
Channel(s) : 2 channels
Channel positions : Front: L R
Sampling rate : 48.0 kHz
Frame rate : 31.250 FPS (1536 SPF)
Bit depth : 16 bits
Compression mode : Lossy
Stream size : 65.0 MiB (7%)
Title : HDRezka
Language : Russian
Service kind : Complete Main
Default : Yes
Forced : No

скриншот   скриншот   скриншот   скриншот   скриншот  
Внимание! Раздача ведётся путём добавления новых серий; при каждом добавлении создаётся новый торрент. Чтобы начать докачку новой серии, пользователям необходимо сделать следующее:
(1) остановить скачивание,
(2) удалить старый торрент у себя из клиента (старые серии удалять не надо),
(3) скачать новый торрент и запустить его у себя в клиенте вместо старого, при этом указать клиенту путь в старую папку куда и должно происходить скачивание новых серий.
Ваш клиент при этом должен произвести хеширование (проверку) старой папки (если не производит сам - помогите ему сделать это), и будет докачивать только те серии которых у вас ещё нет. Старые серии при этом не удаляются, а продолжают раздаваться!
Eсли вы уже удалили старые серии, то предотвратить повторную закачку старых серий можно, отжав галочку в соответствующих местах при запуске нового торрента. По возможности, желательно не удалять старые серии как можно дольше чтобы релизёр не столько продолжал раздавать старые серии, а смог сконцентрироваться на новых.

pb.wtf



Скачать Зыбучий песок через торрент https://i1.imageban.ru/out/2019/04/08/f2e20aa544d59a3f191db26ad760b43b.png Скачать фильм Зыбучий песок через торрент бесплантно в хорошем качестве Описание фильма: Массовая стрельба произошла в одной из элитных шведских школ. В этом преступлении обвиняют Майю. На суде все пытаются ... 5.5 10 2
Торрент: Зарегистрирован [2019-04-30 05:53] · скачан: 29 раз
Статус: √ проверено
Размер: 4.64 GB
Как cкачать? Как скачать Зыбучий песок через торрент | qTorrent

% Раздел Тема Автор DL S | L
Зарубежные сериалы [ 4.33 GB ] Зыбучий песок / Зыбучие пески / Quicksand / Сезон: 1 / Серии: 1-6 из 6 [2019 WEBRip] DVO [Кубик в Кубе] bober100 Скачать
1 | 0
Зарубежные сериалы [ 3.85 GB ] Зыбучий песок / Quicksand / Сезон: 1 / Серии: 1-6 из 6 [2019 WEB-DLRip] MVO [NewStudio] bober100 Скачать
1 | 0
Зарубежные сериалы [ 10.66 GB ] Зыбучий песок / Quicksand / Сезон: 1 / Серии: 1-6 из 6 [2019 WEB-DL 1080p] MVO [TVShows] bober100 Скачать
1 | 0
Зарубежные сериалы [ 11.41 GB ] Зыбучий песок / Зыбучие пески / Quicksand / Сезон: 1 / Серии: 1-6 из 6 [2019 WEB-DL 1080p] DVO [Кубик в Кубе] bober100 Скачать
1 | 0
Зарубежные сериалы [ 10.67 GB ] Зыбучий песок / Quicksand / Сезон: 1 / Серии: 1-6 из 6 [2019 WEB-DL 1080p] MVO [NewStudio] bober100 Скачать
1 | 0
T Зарубежные сериалы [ 9.93 GB ] Зыбучий песок / Quicksand / Сезон: 1 / Серии: 1-6 из 6 [2019 WEBRip 1080p] [Multi Sub] killermax2013 Скачать
1 | 0

28-11-2019 20:33  

Отключить всю рекламу на сайте

    Дорогой пользователь! Огромная просьба, поблагодарите релизера, оцените раздачу и оставьте свои комментарий, если Вы скачали Зыбучий песок через торрент бесплатно! Внесите свою лепту в развитие PiratBit!
    Комментировать посты могут только пользователи прошедшие не сложную регистрацию
    Показать сообщения:    

    Зыбучий песок через торрент
    Скачать бесплатно Зыбучий песок
    Зыбучий песок скачать торрент
    Зыбучий песок смотреть онлайн
    Cкачать фильм Зыбучий песок бесплатно
    Зыбучий песок скачать торрент в хорошем качестве
    Зыбучий песок смотреть онлайн бесплатно в хорошем качестве


    Вы не можете начинать темы
    Вы не можете отвечать на сообщения
    Вы не можете редактировать свои сообщения
    Вы не можете удалять свои сообщения
    Вы не можете голосовать в опросах
    Вы не можете прикреплять файлы к сообщениям
    Вы можете скачивать файлы