Ссылка на приватное зеркало всего за 1$. Внимание количество ограничено!!!

OK

1+1

iTunes

мы

OK

1

WEB-DLRip

Джокер

Пифагор

Ведьмак / The Witcher сериал

iTunes

ПШазам

ОК

Оно 2

iTunes

30
pack

Вам бонус

ВАЖНО

!!Акция!!

Alien_RageХит недели

RePack

Resident Evil 21

ИГРА 18+

pack

RePack

jed

RePack

fifa19

RePack

Assassins Creed: Odyssey

RePack

NEED FOR SPEED™ PAYBACK

4 сезон

9 сезон

Бесстыжие 9 сезон

Все сериалы

все сериалы на PB.wtf

RePack

FAR CRY 5
  

Контрабандный ввоз Хендрикса / Smuggling Hendrix (Мариус Пиперидес) [2018, Драма, комедия, WEB-DL 720p] MVO ["Синема УС"] pb.wtf

Контрабандный ввоз Хендрикса через торрент pb.wtf

Размер: 3.73 GB | Добавлен: 9 мес. назад | Торрент скачан:32 раза
Скачать  

27-04-2019 05:35 Контрабандный ввоз Хендрикса Скачать торрент  

Контрабандный ввоз Хендрикса / Smuggling Hendrix Год выпуска: 2018
Страна: Кипр
Жанр: Драма, комедия
Продолжительность: 01:33:29
Перевод: Любительский (многоголосый) | "Синема УС"
Субтитры: отсутствуют

Режиссер: Мариус Пиперидес

rating

В ролях:

Адам Боусдукс, Фатих Аль, Вики Пападопулу, Озгюр Карадениз, Джаннис Коккинос, Валентинос Коккинос, Грузия Константину, Тони Деметриу, Мариос Стилиану, Андреас Филакту

Описание:

Яннис, несостоявшийся музыкант, собирается покинуть Кипр в поисках лучшей жизни, но все планы срываются, когда его собака убегает и пересекает буферную зону, отделяющую "греческий юг" от "турецкого севера". Сможет ли он пронести его обратно?

Качество: WEB-DL 720p
Формат: MKV

Видео: h.264,5 319 Кбит/с, 1280x528
Аудио: Русский, (AC3, 2 ch, 384 Кбит/с)
скриншот  скриншот  скриншот  

Общее
Уникальный идентификатор : 241078015006616477340790607916880122788 (0xB55DEFD25A21041090A8C70EE33053A4)
Полное имя : D:\SmugglinHendrix.2o18.P.WEB-DL.72Op.mkv
Формат : Matroska
Версия формата : Version 2
Размер файла : 3,73 Гбайт
Продолжительность : 1 ч. 33 м.
Режим общего битрейта : Переменный
Общий поток : 5704 Кбит/сек
Дата кодирования : UTC 2019-04-24 17:54:46
Программа кодирования : mkvmerge v8.3.0 ('Over the Horizon') 64bit
Библиотека кодирования : libebml v1.3.1 + libmatroska v1.4.2

Видео
Идентификатор : 1
Формат : AVC
Формат/Информация : Advanced Video Codec
Профиль формата : High@L4.1
Параметр CABAC формата : Да
Параметр RefFrames формата : 4 кадра
Идентификатор кодека : V_MPEG4/ISO/AVC
Продолжительность : 1 ч. 33 м.
Вид битрейта : Переменный
Битрейт : 5319 Кбит/сек
Максимальный битрейт : 6000 Кбит/сек
Ширина : 1280 пикселей
Высота : 528 пикселей
Соотношение сторон : 2,40:1
Режим частоты кадров : Постоянный
Частота кадров : 23,976 (24000/1001) кадра/сек
Стандарт вещания : Component
Цветовое пространство : YUV
Субдискретизация насыщенности : 4:2:0
Битовая глубина : 8 бит
Тип развёртки : Прогрессивная
Бит/(Пиксели*Кадры) : 0.321
Размер потока : 3,40 Гбайт (91%)
Default : Да
Forced : Нет
Цветовой диапазон : Limited
Основные цвета : BT.709
Характеристики трансфера : BT.709
Коэффициенты матрицы : BT.709

Аудио
Идентификатор : 2
Формат : AC-3
Формат/Информация : Audio Coding 3
Расширение режима : CM (complete main)
Параметр Endianness формата : Big
Идентификатор кодека : A_AC3
Продолжительность : 1 ч. 33 м.
Вид битрейта : Постоянный
Битрейт : 384 Кбит/сек
Каналы : 2 канала
Расположение каналов : Front: L R
Частота : 48,0 КГц
Частота кадров : 31,250 кадров/сек (1536 spf)
Метод сжатия : С потерями
Размер потока : 257 Мбайт (7%)
Default : Да
Forced : Нет

pb.wtf



Скачать Контрабандный ввоз Хендрикса через торрент https://d.radikal.ru/d03/1904/2b/77419f8a641c.jpg Скачать фильм Контрабандный ввоз Хендрикса через торрент бесплантно в хорошем качестве Описание: Яннис, несостоявшийся музыкант, собирается покинуть Кипр в поисках лучшей жизни, но все планы срываются, когда его собака убегает ... 10 10 4
Торрент: Зарегистрирован [2019-04-27 05:35] · скачан: 32 раз
Статус: T временная
Размер: 3.73 GB
Как cкачать? Как скачать Контрабандный ввоз Хендрикса через торрент | qTorrent

% Раздел Тема Автор DL S | L
T Фильмы (мультфильмы) cо спонсором показа (Новинки AVI/MKV) [ 1.37 GB ] Контрабандный ввоз Хендрикса / Smuggling Hendrix [2018 WEB-DLRip] MVO ["Синема УС"] bober100 Скачать
2 | 0

28-11-2019 20:33  

Отключить всю рекламу на сайте

    Дорогой пользователь! Огромная просьба, поблагодарите релизера, оцените раздачу и оставьте свои комментарий, если Вы скачали Контрабандный ввоз Хендрикса через торрент бесплатно! Внесите свою лепту в развитие PiratBit!
    Комментировать посты могут только пользователи прошедшие не сложную регистрацию
    Показать сообщения:    

    Контрабандный ввоз Хендрикса через торрент
    Скачать бесплатно Контрабандный ввоз Хендрикса
    Контрабандный ввоз Хендрикса скачать торрент
    Контрабандный ввоз Хендрикса смотреть онлайн
    Cкачать фильм Контрабандный ввоз Хендрикса бесплатно
    Контрабандный ввоз Хендрикса скачать торрент в хорошем качестве
    Контрабандный ввоз Хендрикса смотреть онлайн бесплатно в хорошем качестве


    Вы не можете начинать темы
    Вы не можете отвечать на сообщения
    Вы не можете редактировать свои сообщения
    Вы не можете удалять свои сообщения
    Вы не можете голосовать в опросах
    Вы не можете прикреплять файлы к сообщениям
    Вы можете скачивать файлы