Ссылка на приватное зеркало нашего сайта всего за 1$. Внимание количество ограничено!!!

2 сезон

iTunes

iTunes

1

iTunes

iTunes

iTunes

WEBRip

iTunes

30
pack

Вам бонус

ВАЖНО

!!Акция!!

Alien_RageХит недели

RePack

Horizon Zero Dawn

ИГРА 18+

pack

RePack

jed

!!Акция!!

Alien_Rage

RePack

fifa19

RePack

Assassins Creed: Odyssey

RePack

NEED FOR SPEED™ PAYBACK

4 сезон

9 сезон

Бесстыжие 9 сезон

Все сериалы

все сериалы на PB.wtf

RePack

FAR CRY 5
  

Девушка из ниоткуда / Girl from Nowhere (Марк Джексон) [2017, Триллер, WEB-DL 720p] MVO ["Синема УС"] pb.wtf

Девушка из ниоткуда через торрент pb.wtf

Размер: 3.44 GB | Добавлен: 1 год 5 мес. назад | Торрент скачан:22 раза
Скачать  

27-04-2019 05:52 Девушка из ниоткуда Скачать торрент  

Девушка из ниоткуда / Girl from Nowhere Год выпуска: 2017
Страна: ЮАР
Жанр: Триллер
Продолжительность: 01:26:09
Перевод: Любительский (многоголосый) | "Синема УС"
Субтитры: отсутствуют

Режиссер: Марк Джексон

rating

В ролях:

Тамрин Спирс, Скот Купер, Кристина Виссер

Описание:

Пара из Кейптауна, Кэтрин и Хью, отправляется в домик в горах на романтические выходные. По дороге они подбирают девушку, путешествующую автостопом. У Лизы есть пистолет, и, возможно, она является воплощением дьявола.

Качество: WEB-DL 720p
Формат: MKV

Видео: h.264,5 337 Кбит/с, 1280x720
Аудио#1: Русский, (AC3, 2 ch, 384 Кбит/с)
скриншот  скриншот  скриншот  

Общее
Уникальный идентификатор : 250178120799443423910101549953303930589 (0xBC368DAD7208F710B6276164907B66DD)
Полное имя : D:\Girl.from.nowhere.2017.P.WEB-DL.72Op.mkv
Формат : Matroska
Версия формата : Version 2
Размер файла : 3,44 Гбайт
Продолжительность : 1 ч. 26 м.
Режим общего битрейта : Переменный
Общий поток : 5723 Кбит/сек
Дата кодирования : UTC 2019-04-23 06:36:16
Программа кодирования : mkvmerge v8.3.0 ('Over the Horizon') 64bit
Библиотека кодирования : libebml v1.3.1 + libmatroska v1.4.2

Видео
Идентификатор : 1
Формат : AVC
Формат/Информация : Advanced Video Codec
Профиль формата : High@L4.1
Параметр CABAC формата : Да
Параметр RefFrames формата : 4 кадра
Идентификатор кодека : V_MPEG4/ISO/AVC
Продолжительность : 1 ч. 26 м.
Вид битрейта : Переменный
Битрейт : 5337 Кбит/сек
Максимальный битрейт : 6000 Кбит/сек
Ширина : 1280 пикселей
Высота : 720 пикселей
Соотношение сторон : 16:9
Режим частоты кадров : Постоянный
Частота кадров : 23,976 (24000/1001) кадра/сек
Стандарт вещания : Component
Цветовое пространство : YUV
Субдискретизация насыщенности : 4:2:0
Битовая глубина : 8 бит
Тип развёртки : Прогрессивная
Бит/(Пиксели*Кадры) : 0.236
Размер потока : 3,14 Гбайт (91%)
Default : Да
Forced : Нет
Цветовой диапазон : Limited
Основные цвета : BT.709
Характеристики трансфера : BT.709
Коэффициенты матрицы : BT.709

Аудио
Идентификатор : 2
Формат : AC-3
Формат/Информация : Audio Coding 3
Расширение режима : CM (complete main)
Параметр Endianness формата : Big
Идентификатор кодека : A_AC3
Продолжительность : 1 ч. 26 м.
Вид битрейта : Постоянный
Битрейт : 384 Кбит/сек
Каналы : 2 канала
Расположение каналов : Front: L R
Частота : 48,0 КГц
Частота кадров : 31,250 кадров/сек (1536 spf)
Метод сжатия : С потерями
Размер потока : 237 Мбайт (7%)
Default : Да
Forced : Нет

pb.wtf



Скачать Девушка из ниоткуда через торрент https://c.radikal.ru/c06/1904/e7/5a320a102821.jpg Скачать фильм Девушка из ниоткуда через торрент бесплантно в хорошем качестве Описание: Пара из Кейптауна, Кэтрин и Хью, отправляется в домик в горах на романтические выходные. По дороге они подбирают девушку, ... 10 10 2
Торрент: Зарегистрирован [2019-04-27 05:52] · скачан: 22 раз
Статус: T временная
Размер: 3.44 GB
Как cкачать? Как скачать Девушка из ниоткуда через торрент | qTorrent

% Раздел Тема Автор DL S | L
T Фильмы (мультфильмы) cо спонсором показа (Новинки AVI/MKV) [ 1.37 GB ] Девушка из ниоткуда / Girl from Nowhere [2017 WEB-DLRip] MVO ["Синема УС"] bober100 Скачать
1 | 0

28-11-2019 20:33  

Отключить всю рекламу на сайте

27-04-2019 09:32 Девушка из ниоткуда Скачать торрент  

Верните мне мои гигабайты...уснул... pb.wtf



    Дорогой пользователь! Огромная просьба, поблагодарите релизера, оцените раздачу и оставьте свои комментарий, если Вы скачали Девушка из ниоткуда через торрент бесплатно! Внесите свою лепту в развитие PiratBit!
    Комментировать посты могут только пользователи прошедшие не сложную регистрацию
    Показать сообщения:    

    Девушка из ниоткуда через торрент
    Скачать бесплатно Девушка из ниоткуда
    Девушка из ниоткуда скачать торрент
    Девушка из ниоткуда смотреть онлайн
    Cкачать фильм Девушка из ниоткуда бесплатно
    Девушка из ниоткуда скачать торрент в хорошем качестве
    Девушка из ниоткуда смотреть онлайн бесплатно в хорошем качестве


    Вы не можете начинать темы
    Вы не можете отвечать на сообщения
    Вы не можете редактировать свои сообщения
    Вы не можете удалять свои сообщения
    Вы не можете голосовать в опросах
    Вы не можете прикреплять файлы к сообщениям
    Вы можете скачивать файлы