новый адрес
Ссылка на приватное зеркало всего за 1$. Внимание количество ограничено!!!

iTunes

1+1

iTunes

мы

iTunes

1

iTunes

Чернобыль

iTunes

Ральф против интернета

Лицензия

ПШазам

Лицензия

Оно 2

Лицензия

30
pack

Вам бонус

ВАЖНО

!!Акция!!

Alien_RageХит недели

RePack

Resident Evil 21

ИГРА 18+

pack

RePack

jed

!!Акция!!

Alien_Rage

RePack

fifa19

RePack

Assassins Creed: Odyssey

RePack

NEED FOR SPEED™ PAYBACK

3 сезон

9 сезон

Бесстыжие 9 сезон

Все сериалы

все сериалы на PB.wtf

RePack

FAR CRY 5
Ребята, катастрофически не хватает 1900р. для оплаты серверов за Октябрь (всвязи с блокировками трафик упал в 3 раза), 1-2р., выручайте.
  

Куклы смеются (Николай Санишвили) [1962, СССР, мюзикл, мелодрама, комедия, SATRip от AVP Studio] pb.wtf

Куклы смеются через торрент pb.wtf

Размер: 1.09 GB | Добавлен: 6 мес. назад | Торрент скачан:4 раза
Скачать  

27-04-2019 07:57 Куклы смеются Скачать торрент  

Куклы смеются
Страна: СССР
Производство: Грузия-фильм

Жанр: мюзикл, мелодрама, комедия
Год выпуска: 1963
Продолжительность: 01:26:09

Перевод: Не требуется
Cубтитры: нет
Оригинальная аудиодорожка: русский

Режиссер: Николай Санишвили

В ролях:
Мераб Тавадзе, Сесилия Такаишвили, Ипполит Хвичия, Марина Тбилели, Меги Кежерадзе, Эроси Манджгаладзе, Георгий Габелашвили, Александр (Сандро) Жоржолиани, Вахтанг Сулаквелидзе, Джульетта Вашакмадзе, Нино Чхеидзе, Жужуна Дугладзе, Ирина Магалашвили, Михаил Мгеладзе, Дудухана Церодзе, Гуранда Габуния, Картлос Касрадзе, Елена Кипшидзе, Х. Хуцишвили, Читолия Чхеидзе...
Об актёрах подробней

Описание:
Лирическая кинокомедия с участием целой плеяды выдающихся грузинских актеров, с замечательными песнями Сулхана Цинцадзе..
Мать и бабушка Резико мечтают, чтобы их ребенок, выпускник школы, учился в консерватории. Но Резико, ленясь готовиться к экзаменам, проваливается. О провале знает лишь отец юноши. Вдвоем они решают, что Резико будет учиться заочно, а сам пойдет работать на фабрику игрушек. Забавные приключения, смешные и неправдоподобные ситуации, первая любовь ждут несостоявшегося студента...

Исходник: DVB
Качество видео: SATRip
Формат видео: AVI

Видео: 688x512 (4:3), 23,976 кадров/сек, XviD ~ 1610 kbps avg, 0.191 bit/pixel
Аудио: 48 kHz, Dolby Digital AC3 2.0, 192 kbps

Раздача от:
Общее
Полное имя : Kukly.smeyutsya.1963.SATRip_[New-team]_by_AVP_Studio.avi
Формат : AVI
Формат/Информация : Audio Video Interleave
Размер файла : 1,09 Гбайт
Продолжительность : 1 ч. 26 м.
Общий поток : 1811 Кбит/сек
Программа кодирования : VirtualDubMod 1.5.10.3 | www.virtualdub-fr.org || (build 2550/release)
Библиотека кодирования : VirtualDubMod build 2550/release

Видео
Идентификатор : 0
Формат : MPEG-4 Visual
Профиль формата : Advanced Simple@L5
Настройки формата : BVOP1 / Custom Matrix
Параметр BVOP формата : 1
Параметр QPel формата : Нет
Параметр GMC формата : Без точки перехода
Параметр матрицы формата : Выборочная
Идентификатор кодека : XVID
Идентификатор кодека/Подсказка : XviD
Продолжительность : 1 ч. 26 м.
Битрейт : 1610 Кбит/сек
Ширина : 688 пикселей
Высота : 512 пикселей
Соотношение сторон : 4:3
Частота кадров : 23,976 (24000/1001) кадра/сек
Частота кадров в оригинале : 23,976 (23976/1000) кадра/сек
Цветовое пространство : YUV
Субдискретизация насыщенности : 4:2:0
Битовая глубина : 8 бит
Тип развёртки : Прогрессивная
Метод сжатия : С потерями
Бит/(Пиксели*Кадры) : 0.191
Размер потока : 992 Мбайт (89%)
Библиотека кодирования : XviD 73

Аудио
Идентификатор : 1
Формат : AC-3
Формат/Информация : Audio Coding 3
Коммерческое название : Dolby Digital
Идентификатор кодека : 2000
Продолжительность : 1 ч. 26 м.
Вид битрейта : Постоянный
Битрейт : 192 Кбит/сек
Каналы : 2 канала
ChannelLayout : L R
Частота : 48,0 КГц
Частота кадров : 31,250 кадров/сек (1536 SPF)
Битовая глубина : 16 бит
Метод сжатия : С потерями
Размер потока : 118 Мбайт (11%)
Выравнивание : Разделение по промежуткам
Продолжительность промежутка : 42 мс. (1,00 видеокадр)
Время предзагрузки промежутка : 500 мс
pb.wtf



Скачать Куклы смеются через торрент http://picplus.ru/img/1904/27/37ebf6dc.png Скачать фильм Куклы смеются через торрент бесплантно в хорошем качестве Описание:Лирическая кинокомедия с участием целой плеяды выдающихся грузинских актеров, с замечательными песнями Сулхана Цинцадзе..Мать и ... 5 10 1
Info! Золотая раздача, скачанное не засчитывается.
Торрент: Зарегистрирован [2019-04-27 07:57] · скачан: 4 раз
Статус: √ проверено
Размер: 1.09 GB
Как cкачать? Как скачать Куклы смеются через торрент | qTorrent

% Раздел Тема Автор DL S | L
Кино СССР [ 1.09 GB ] Куклы смеются [1962 СССР мюзикл SATRip-AVC от AVP Studio] AVP Studio Скачать
1 | 0
    Дорогой пользователь! Огромная просьба, поблагодарите релизера, оцените раздачу и оставьте свои комментарий, если Вы скачали Куклы смеются через торрент бесплатно! Внесите свою лепту в развитие PiratBit!
    Комментировать посты могут только пользователи прошедшие не сложную регистрацию
    Показать сообщения:    

    Куклы смеются через торрент
    Скачать бесплатно Куклы смеются
    Куклы смеются скачать торрент
    Куклы смеются смотреть онлайн
    Cкачать фильм Куклы смеются бесплатно
    Куклы смеются скачать торрент в хорошем качестве
    Куклы смеются смотреть онлайн бесплатно в хорошем качестве


    Вы не можете начинать темы
    Вы не можете отвечать на сообщения
    Вы не можете редактировать свои сообщения
    Вы не можете удалять свои сообщения
    Вы не можете голосовать в опросах
    Вы не можете прикреплять файлы к сообщениям
    Вы можете скачивать файлы