Ссылка на приватное зеркало нашего сайта всего за 1$. Внимание количество ограничено!!!

2 сезон

iTunes

1 сезон

1

iTunes

iTunes

iTunes

1 сезон

RePack

30

ИГРА 18+

pack

ВАЖНО

!!Акция!!

Alien_RageХит недели

RePack

MK11
pack

Забери бонус

RePack

jed

!!Акция!!

Alien_Rage

RePack

fifa19

RePack

Assassins Creed: Odyssey

RePack

NEED FOR SPEED™ PAYBACK

4 сезон

9 сезон

Бесстыжие 9 сезон

Все сериалы

все сериалы на PB.wtf

RePack

FAR CRY 5
  

Кассирши / Серии: 1-4 из 4 (Андрей Силкин) [2019, Мелодрама, SATRip] pb.wtf

Кассирши через торрент pb.wtf

Размер: 2.34 GB | Добавлен: 1 год 5 мес. назад | Торрент скачан:34 раза
Скачать  

28-04-2019 05:16 Кассирши Скачать торрент  

Кассирши Год выпуска: 2019
Страна: Россия
Жанр: Мелодрама
Продолжительность: ~ 00:46:00
Субтитры: отсутствуют

Режиссер: Андрей Силкин



В ролях:

Светлана Колпакова, Александра Никифорова, Елена Захарова, Максим Битюков, Эдуард Чекмазов, Наталья Громушкина, Сергей Губанов, Ольга Науменко, Дмитрий Бедерин, Андрей Москвичёв, Елизавета Силкина, Артём Башенин, Евгений Данчевский, Олег Голосов, Юлия Абрамова (II), Анна Асташкина, Юлия Чебакова, Евгений Аксёнов (II)

Описание:

Двадцатилетняя Мария приезжает в Москву, чтобы найти своего отца, о котором почти ничего не знает. Она устраивается в магазин кассиршей, где знакомится с тридцатилетней Ириной и сорокалетней Ольгой. В то время как Ирина стремится выйти замуж, чтобы у ее дочери наконец-то появился папа, одинокая Ольга копит деньги на мечту — собственную квартиру. Однако пока их мечтам не суждено осуществиться. Машу не сломило разочарование от встречи с родным отцом. Она устраивается в больницу медсестрой, постепенно приближаясь к своей мечте. Ирина дает дочери слово, что сосредоточится на своей карьере и забудет о романах, но затем знакомится с сыном квартирной хозяйки, Русланом, и понимает, что слово будет сдержать тяжело… А Ольгу судьба в лице волонтера Ильи приводит в детский приют.

Качество: SATRip
Формат: AVI

Видео: XviD, ~ 1750 Кбит/с, 720x400
Аудио: MP3, 2 ch, 192 Кбит/с
скриншот  скриншот  скриншот  скриншот  

Общее
Полное имя : D:\Kassirshi.2019.XviD.SATRip.25Kuzmich\Kassirshi.(01.seriya.iz.04).XviD.SATRip.25Kuzmich.avi
Формат : AVI
Формат/Информация : Audio Video Interleave
Размер файла : 600 Мбайт
Продолжительность : 42 м. 31 с.
Общий поток : 1971 Кбит/сек
Программа кодирования : VirtualDubMod 1.5.10.3 | www.virtualdub-fr.org || (build 2550/release)
Библиотека кодирования : VirtualDubMod build 2550/release

Видео
Идентификатор : 0
Формат : MPEG-4 Visual
Профиль формата : Advanced Simple@L5
Параметр BVOP формата : 1
Параметр QPel формата : Нет
Параметр GMC формата : Без точки перехода
Параметр матрицы формата : Default (MPEG)
Идентификатор кодека : XVID
Идентификатор кодека/Подсказка : XviD
Продолжительность : 42 м. 31 с.
Битрейт : 1770 Кбит/сек
Ширина : 720 пикселей
Высота : 400 пикселей
Соотношение сторон : 16:9
Частота кадров : 25,000 кадров/сек
Цветовое пространство : YUV
Субдискретизация насыщенности : 4:2:0
Битовая глубина : 8 бит
Тип развёртки : Прогрессивная
Метод сжатия : С потерями
Бит/(Пиксели*Кадры) : 0.246
Размер потока : 538 Мбайт (90%)
Библиотека кодирования : XviD 73

Аудио
Идентификатор : 1
Формат : MPEG Audio
Версия формата : Version 1
Профиль формата : Layer 3
Режим : Joint stereo
Идентификатор кодека : 55
Идентификатор кодека/Подсказка : MP3
Продолжительность : 42 м. 31 с.
Вид битрейта : Постоянный
Битрейт : 192 Кбит/сек
Каналы : 2 канала
Частота : 48,0 КГц
Метод сжатия : С потерями
Размер потока : 58,4 Мбайт (10%)
Выравнивание : Соединение по промежуткам
Продолжительность промежутка : 40 мс. (1,00 видеокадр)
Время предзагрузки промежутка : 504 мс.
Библиотека кодирования : LAME3.99r
Настройки программы : -m j -V 4 -q 2 -lowpass 18.6 -b 192

pb.wtf



Скачать Кассирши через торрент https://i110.fastpic.ru/big/2019/0427/69/c29437f6f1735ecde028ab7083b35a69.jpg Скачать фильм Кассирши через торрент бесплантно в хорошем качестве Описание: Двадцатилетняя Мария приезжает в Москву, чтобы найти своего отца, о котором почти ничего не знает. Она устраивается в магазин ... 10 10 3
Торрент: Зарегистрирован [2019-04-28 05:16] · скачан: 34 раз
Статус: √ проверено
Размер: 2.34 GB
Как cкачать? Как скачать Кассирши через торрент | qTorrent

% Раздел Тема Автор DL S | L
Наши сериалы [ 2.22 GB ] Кассирши / Серии: 1-4 из 4 [2019 Мело WEBRip-AVC] bober100 Скачать
1 | 0
Наши сериалы [ 2.22 GB ] Кассирши / Серии: 1-4 из 4 [2019 SATRip-AVC] aleksan55 Скачать
1 | 0

28-11-2019 20:33  

Отключить всю рекламу на сайте

    Дорогой пользователь! Огромная просьба, поблагодарите релизера, оцените раздачу и оставьте свои комментарий, если Вы скачали Кассирши через торрент бесплатно! Внесите свою лепту в развитие PiratBit!
    Комментировать посты могут только пользователи прошедшие не сложную регистрацию
    Показать сообщения:    

    Кассирши через торрент
    Скачать бесплатно Кассирши
    Кассирши скачать торрент
    Кассирши смотреть онлайн
    Cкачать фильм Кассирши бесплатно
    Кассирши скачать торрент в хорошем качестве
    Кассирши смотреть онлайн бесплатно в хорошем качестве


    Вы не можете начинать темы
    Вы не можете отвечать на сообщения
    Вы не можете редактировать свои сообщения
    Вы не можете удалять свои сообщения
    Вы не можете голосовать в опросах
    Вы не можете прикреплять файлы к сообщениям
    Вы можете скачивать файлы