Ссылка на приватное зеркало нашего сайта всего за 1$. Внимание количество ограничено!!!

2 сезон

iTunes

1 сезон

1

iTunes

iTunes

iTunes

1 сезон

RePack

30

ИГРА 18+

pack

ВАЖНО

!!Акция!!

Alien_RageХит недели

RePack

MK11
pack

Забери бонус

RePack

jed

!!Акция!!

Alien_Rage

RePack

fifa19

RePack

Assassins Creed: Odyssey

RePack

NEED FOR SPEED™ PAYBACK

4 сезон

9 сезон

Бесстыжие 9 сезон

Все сериалы

все сериалы на PB.wtf

RePack

FAR CRY 5
  

Провокатор / Сезон: 1 / Серии: 1-20 из 20 (Вадим Шмелев, Станислав Шмелев) [2016, Боевик, триллер, приключения, драма, WEB-DLRip] pb.wtf

Провокатор через торрент pb.wtf

Размер: 10.76 GB | Добавлен: 1 год 5 мес. назад | Торрент скачан:74 раза
Скачать  

28-04-2019 06:58 Провокатор Скачать торрент  

Провокатор Год выпуска: 2016
Страна: Россия
Жанр: Боевик, триллер, приключения, драма
Продолжительность: ~ 00:44:00
Перевод: Не требуется
Субтитры: отсутствуют

Режиссер: Вадим Шмелев, Станислав Шмелев

rating

В ролях:

Андрей Чадов, Татьяна Арнтгольц, Анастасия Заворотнюк, Дмитрий Исаев, Даниил Спиваковский, Андрей Руденский, Станислав Бондаренко, Никита Зверев, Лилия Мэй, Светлана Тимофеева-Летуновская, Александр Голубков, Александр Тютин, Алексей Колган, Михаил Дорожкин, Ирина Томская, Владимир Тишко, Вячеслав Бондарчук

Описание:

С одной стороны, Антон – внештатный сотрудник МВДшной структуры, цель которой "противодействие коррупции". С другой стороны, он – «Робин Гуд», вершащий суд над теми, над кем реальный суд не властен. Вся жизнь Антона протекает «под глубочайшим прикрытием». Личной жизни у него нет, только экстремальная работа.К его услугам прибегают в исключительных случаях, когда не остается иного способа, чтобы «вывести на чистую воду» зарвавшегося преступника, окончательно уверовавшего в свою безнаказанность. Антона приглашают, как "свободного художника". У него есть право действовать так, как он посчитает нужным, и при этом не считаться ни с какими инструкциями. Задача Антона спровоцировать «объект» и заставить его совершить роковую ошибку. Для начала, ему нужно придумать безупречную «легенду». Незаметно подобраться к «объекту». Разыграть перед ним спектакль. Заставить злодея поверить "разводку" и схватить наживку. После этого останется только нанести разящий удар! Антон никогда не допускал ошибок. Точнее сказать, почти никогда... Пока однажды он случайно не встретил свою «первую л

Качество: WEB-DLRip
Формат: AVI

Видео: 720x400 (1.80:1), 25 fps, XviD build 73 ~1700 kbps avg, 0.237 bit/pixel
Аудио: 48.0 kHz, AC3 Dolby Digital, 2/0 (L,R) ch, ~ 192 kbps
скриншот  скриншот  скриншот  скриншот  скриншот  

скриншот  скриншот  скриншот  скриншот  скриншот  

General
Complete name : D:\Провокатор.2015.WEBRip.by.Nicodem.Files-x\01.Провокатор.2015.WEBRip.by.Nicodem.Files-x.avi
Format : AVI
Format/Info : Audio Video Interleave
File size : 600 MiB
Duration : 44mn 0s
Overall bit rate : 1 906 Kbps
Writing application : VirtualDubMod 1.5.10.3 | www.virtualdub-fr.org || (build 2550/release)
Writing library : VirtualDubMod build 2550/release

Video
ID : 0
Format : MPEG-4 Visual
Format profile : Advanced Simple@L5
Format settings, BVOP : 1
Format settings, QPel : No
Format settings, GMC : No warppoints
Format settings, Matrix : Custom
Codec ID : XVID
Codec ID/Hint : XviD
Duration : 44mn 0s
Bit rate : 1 704 Kbps
Width : 720 pixels
Height : 400 pixels
Display aspect ratio : 16:9
Frame rate : 25.000 fps
Color space : YUV
Chroma subsampling : 4:2:0
Bit depth : 8 bits
Scan type : Progressive
Compression mode : Lossy
Bits/(Pixel*Frame) : 0.237
Stream size : 536 MiB (89%)
Writing library : XviD 1.2.1 (UTC 2008-12-04)

Audio
ID : 1
Format : AC-3
Format/Info : Audio Coding 3
Mode extension : CM (complete main)
Format settings, Endianness : Big
Codec ID : 2000
Duration : 44mn 0s
Bit rate mode : Constant
Bit rate : 192 Kbps
Channel count : 2 channels
Channel positions : Front: L R
Sampling rate : 48.0 KHz
Bit depth : 16 bits
Compression mode : Lossy
Stream size : 60.4 MiB (10%)
Alignment : Split accross interleaves
Interleave, duration : 40 ms (1.00 video frame)
Interleave, preload duration : 500 ms

pb.wtf



Скачать Провокатор через торрент http://i79.fastpic.ru/big/2016/0528/a9/c0cbf6427d1211c742d2e9565ecfb5a9.jpg Скачать фильм Провокатор через торрент бесплантно в хорошем качестве Описание: С одной стороны, Антон – внештатный сотрудник МВДшной структуры, цель которой "противодействие коррупции". С другой стороны, он – ... 9.4 10 7
Торрент: Зарегистрирован [2019-04-28 06:58] · скачан: 74 раз
Статус: √ проверено
Размер: 10.76 GB
Как cкачать? Как скачать Провокатор через торрент | qTorrent

% Раздел Тема Автор DL S | L
Наши сериалы [ 9.38 GB ] Триггер / Провокатор / Сезоны: 1 / Серии: 1-16 из 16 [2018 WEB-DLRip ] bober100 Скачать
2 | 0
Наши сериалы [ 29.47 GB ] Триггер / Провокатор / Сезоны: 1 / Серии: 1-16 из 16 [2018 WEB-DL 1080p] bober100 Скачать
2 | 0
Наши сериалы [ 11.84 GB ] Триггер / Провокатор / Сезоны: 1 / Серии: 1-16 из 16 [2018 HDTVRip-AVC] bober100 Скачать
1 | 1
Наши сериалы [ 19.93 GB ] Триггер / Провокатор / Сезоны: 1 / Серии: 1-16 из 16 [2018 HDTVRip 720p] bober100 Скачать
1 | 0
Наши сериалы [ 9.41 GB ] Триггер / Провокатор / Сезоны: 1 / Серии: 1-16 из 16 [2018 SATRip] bober100 Скачать
1 | 0
Наши сериалы [ 9.72 GB ] Триггер / Провокатор / Сезоны: 1 / Серии: 1-16 из 16 [2018 HDTVRip] bober100 Скачать
1 | 0
Наши сериалы [ 30.98 GB ] Триггер / Провокатор / Сезоны: 1 / Серии: 1-16 из 16 [2018 HDTV 1080i] bober100 Скачать
1 | 0

28-11-2019 20:33  

Отключить всю рекламу на сайте

    Дорогой пользователь! Огромная просьба, поблагодарите релизера, оцените раздачу и оставьте свои комментарий, если Вы скачали Провокатор через торрент бесплатно! Внесите свою лепту в развитие PiratBit!
    Комментировать посты могут только пользователи прошедшие не сложную регистрацию
    Показать сообщения:    

    Провокатор через торрент
    Скачать бесплатно Провокатор
    Провокатор скачать торрент
    Провокатор смотреть онлайн
    Cкачать фильм Провокатор бесплатно
    Провокатор скачать торрент в хорошем качестве
    Провокатор смотреть онлайн бесплатно в хорошем качестве


    Вы не можете начинать темы
    Вы не можете отвечать на сообщения
    Вы не можете редактировать свои сообщения
    Вы не можете удалять свои сообщения
    Вы не можете голосовать в опросах
    Вы не можете прикреплять файлы к сообщениям
    Вы можете скачивать файлы