Ссылка на приватное зеркало нашего сайта всего за 1$. Внимание количество ограничено!!!

2 сезон

iTunes

1 сезон

1

iTunes

iTunes

iTunes

1 сезон

RePack

30

ИГРА 18+

pack

ВАЖНО

!!Акция!!

Alien_RageХит недели

RePack

MK11
pack

Забери бонус

RePack

jed

!!Акция!!

Alien_Rage

RePack

fifa19

RePack

Assassins Creed: Odyssey

RePack

NEED FOR SPEED™ PAYBACK

4 сезон

9 сезон

Бесстыжие 9 сезон

Все сериалы

все сериалы на PB.wtf

RePack

FAR CRY 5
  

Девять жизней Нестора Махно / Серии: 1-12 из 12 (Николай Каптан) [2006, Исторический, драма, DVDRip-AVC] pb.wtf

Девять жизней Нестора Махно через торрент pb.wtf

Раздают: 2 [ 0 KB/s ]
Размер: 8.94 GB | Добавлен: 1 год 5 мес. назад | Торрент скачан:83 раза
Скачать  

28-04-2019 07:37 Девять жизней Нестора Махно Скачать торрент  

Девять жизней Нестора Махно Год выпуска: 2006
Страна: Россия, Украина
Жанр: Исторический, драма
Продолжительность: ~ 00:51:40
Субтитры: отсутствуют

Режиссер: Николай Каптан

rating

В ролях:

Павел Деревянко, Ада Роговцева, Даниил Белых, Кирилл Плетнёв, Игорь Гнездилов, Андрей Журба, Владислав Мамчур, Александр Жуковин, Юрий Молчановский, Владимир Башкиров, Олег Примогенов, Александр Кобзарь, Константин Костышин, Вячеслав Василюк, Лидия Оболенская, Максим Браматкин, Леся Самаева, Наталья Солдатова, Сергей Романюк, Борис Георгиевский, Денис Масляев, Сергей Бойко, Игорь Славинский, Владимир Заднепровский, Николай Олейник, Василий Ивашина, Андрей Маслов-Лисичкин, Александр Кочубей, Анна Уколова, Анна Слю, Игорь Старосельцев, Арсений Ковальский, Валерий Шептекита, Сергей Гаврилюк, Людмила Смородина, Станислав Боклан, Анатолий Гнатюк, Евгений Князев

Описание:

В семнадцать лет Нестор Махно был осужден на 20 лет тюрьмы за участие в грабежах и убийствах. В феврале 17-го его освободит и привлечет к себе революция. Тюремный и боевой опыт анархиста Махно сделали его востребованным тем бурным временем. Беспощадная партизанская война за свободу от любой власти и насилия превратили батьку Махно в серьезного и опасного противника для всех воюющих сторон: немцев, петлюровцев, белых и красных. Война принесет Махно славу, любовь и друзей, откроет возможности безграничной власти и заставит его сделать окончательный выбор в жизни.

Качество: DVDRip-AVC
Формат: MKV

Видео: 716@764x430 (16:9), 25 fps, ~1850 Kbps
Аудио: AC3, 2 ch, 192 Кбит/с
скриншот  скриншот  скриншот  скриншот  скриншот  

скриншот  скриншот  скриншот  скриншот  скриншот  

скриншот  скриншот  скриншот  скриншот  скриншот  

General
Unique ID: 295560398311078089956546047392404799939 (0xDE5ADCB5BF1E6BB27A0F31C9BBE101C3)
Complete name: 03_Махно_(2006)_DVDRip-AVC.mkv
Format: Matroska
Format version: Version 4
File size: 779 MiB
Duration: 52 min 17 s
Overall bit rate: 2 083 kb/s
Attachments: poster

Video
ID: 1
Format: AVC
Format/Info: Advanced Video Codec
Format profile: High@L4.1
Format settings: CABAC / 12 Ref Frames
Format settings, CABAC: Yes
Format settings, Reference: 12 frames
Codec ID: V_MPEG4/ISO/AVC
Duration: 52 min 17 s
Bit rate: 1 849 kb/s
Width: 716 pixels
Height: 430 pixels
Display aspect ratio: 16:9
Frame rate mode: Constant
Frame rate: 25.000 FPS
Color space: YUV
Chroma subsampling: 4:2:0
Bit depth: 8 bits
Scan type: Progressive
Bits/(Pixel*Frame): 0.240
Stream size: 692 MiB (89%)
Title: RIP_BY_-=DoMiNo=-
Writing library: x264 core 157 r2969 d4099dd
Encoding settings: cabac=1 / ref=12 / deblock=1:-2:-2 / analyse=0x3:0x133 / me=umh / subme=11 / psy=1 / psy_rd=1.00:0.15 / mixed_ref=1 / me_range=32 / chroma_me=1 / trellis=2 / 8x8dct=1 / cqm=0 / deadzone=21,11 / fast_pskip=1 / chroma_qp_offset=-3 / threads=6 / lookahead_threads=1 / sliced_threads=0 / nr=0 / decimate=1 / interlaced=0 / bluray_compat=0 / constrained_intra=0 / bframes=10 / b_pyramid=2 / b_adapt=2 / b_bias=0 / direct=1 / weightb=1 / open_gop=0 / weightp=2 / keyint=250 / keyint_min=25 / scenecut=40 / intra_refresh=0 / rc=crf / mbtree=0 / crf=19.0 / qcomp=0.65 / qpmin=15 / qpmax=69 / qpstep=4 / ip_ratio=1.40 / pb_ratio=1.30 / aq=1:0.80
Default: Yes
Forced: No
Color range: Limited
EPISODE_SORT: 3

Audio
ID: 2
Format: AC-3
Format/Info: Audio Coding 3
Commercial name: Dolby Digital
Codec ID: A_AC3
Duration: 52 min 17 s
Bit rate mode: Constant
Bit rate: 192 kb/s
Channel(s): 2 channels
Channel layout: L R
Sampling rate: 48.0 kHz
Frame rate: 31.250 FPS (1536 SPF)
Bit depth: 16 bits
Compression mode: Lossy
Stream size: 71.8 MiB (9%)
Service kind: Complete Main
Default: Yes
Forced: No

Menu
00:00:00.000: :Глава 0
00:10:00.000: :Глава 1
00:20:00.000: :Глава 2
00:30:00.000: :Глава 3
00:40:00.000: :Глава 4

pb.wtf



Скачать Девять жизней Нестора Махно через торрент http://i65.fastpic.ru/big/2014/1106/9d/a35a920bd1e2049159f0dece28c3209d.jpg Скачать фильм Девять жизней Нестора Махно через торрент бесплантно в хорошем качестве Описание: В семнадцать лет Нестор Махно был осужден на 20 лет тюрьмы за участие в грабежах и убийствах. В феврале 17-го его освободит и ... 10 10 3
Info! Золотая раздача, скачанное не засчитывается.
Торрент: Зарегистрирован [2019-04-28 07:37] · скачан: 83 раз
Статус: √ проверено
Размер: 8.94 GB
Как cкачать? Как скачать Девять жизней Нестора Махно через торрент | qTorrent

% Раздел Тема Автор DL S | L
Наши сериалы [ 4.33 GB ] Девять жизней Нестора Махно [2006 исторический DVDRip пиратка] Ragazzo Скачать
2 | 0

28-11-2019 20:33  

Отключить всю рекламу на сайте

    Дорогой пользователь! Огромная просьба, поблагодарите релизера, оцените раздачу и оставьте свои комментарий, если Вы скачали Девять жизней Нестора Махно через торрент бесплатно! Внесите свою лепту в развитие PiratBit!
    Комментировать посты могут только пользователи прошедшие не сложную регистрацию
    Показать сообщения:    

    Девять жизней Нестора Махно через торрент
    Скачать бесплатно Девять жизней Нестора Махно
    Девять жизней Нестора Махно скачать торрент
    Девять жизней Нестора Махно смотреть онлайн
    Cкачать фильм Девять жизней Нестора Махно бесплатно
    Девять жизней Нестора Махно скачать торрент в хорошем качестве
    Девять жизней Нестора Махно смотреть онлайн бесплатно в хорошем качестве


    Вы не можете начинать темы
    Вы не можете отвечать на сообщения
    Вы не можете редактировать свои сообщения
    Вы не можете удалять свои сообщения
    Вы не можете голосовать в опросах
    Вы не можете прикреплять файлы к сообщениям
    Вы можете скачивать файлы